eztv.tf | eztvstatus.org
Search title:  
TV Packs only
 

The Killing Kind S01E02 1080pWEBRip DDP5 1 H265-d3g EZTV

Episode Breakdown
The Killing Kind
The Killing Kind TV Show S01E02

Season: 1
Episode: 2
Air Date: 7 September, 2023
Download Links
     Torrent Download     Magnet Download
     Anonymous Download
Added 8 months ago by eztv (verified).
Tracker Statistics
Seeds: 1
Peers: 0
Stats generated @ 18:35 on 16th Jun 2024
Torrent Info
Torrent File: The.Killing.Kind.S01E02.1080pWEBRip.DDP5.1.H265-d3g[eztv.re].mkv
Torrent Hash: DC4A4E6A7AE0E2852143E19DA26C36D27DE615DA
Filesize: 1.87 GB
Released: 18th Sep 2023

File Format: MKV (Matroska)
Resolution: 1920x1080 px
Aspect Ratio: 16:9
Alternate Releases S L
The Killing Kind S01E02 WEBRip x264-XEN0N 3 0
The Killing Kind S01E02 720p WEB h264-EDITH 0 1
The Killing Kind S01E02 1080p WEB h264-EDITH 1 0
The Killing Kind S01E02 480p x264-mSD 2 0
The Killing Kind S01E02 XviD-AFG 0 1
The Killing Kind S01E02 1080p HEVC x265-MeGusta 0 0

The Killing Kind S01E02 - Episode 2

Summary:

Ingrid sets out to prove Belinda's death wasn't an accident. Detective Nash dismisses Ingrid's theories, but Webster says he believes her and can help. Ingrid receives an unsettling gift and finds herself in a dangerous situation.



The Killing Kind S01E02 1080pWEBRip DDP5 1 H265-d3g EZTV
The Killing Kind S1E2 Screenshot


General
Unique ID: 199352425247416291601804213840551488036 (0x95F9E16A380977BC87F421E7E32A2A24)
Complete name: The.Killing.Kind.S01E02.1080pWEBRip.DDP5.1.H265-d3g.mkv
Format: Matroska
Format version: Version 2
File size: 1.87 GiB
Duration: 47 min 31 s
Overall bit rate: 5 632 kb/s
Frame rate: 23.976 FPS
Movie name: The.Killing.Kind.S01E02.1080pWEBRip.DDP5.1.H265-d3g
Encoded date: 2023-09-18 15:05:23 UTC
Writing application: DVDFab 12.1.1.5
Writing library: libebml v1.4.2 + libmatroska v1.6.3

Video
ID: 1
Format: HEVC
Format/Info: High Efficiency Video Coding
Format profile: Main@L4@Main
Codec ID: V_MPEGH/ISO/HEVC
Duration: 47 min 31 s
Bit rate: 4 917 kb/s
Width: 1 920 pixels
Height: 1 080 pixels
Display aspect ratio: 16:9
Frame rate mode: Constant
Frame rate: 23.976 (24000/1001) FPS
Color space: YUV
Chroma subsampling: 4:2:0
Bit depth: 8 bits
Bits/(Pixel*Frame): 0.099
Stream size: 1.63 GiB (87%)
Default: Yes
Forced: No
Color range: Limited
Color primaries: BT.709
Transfer characteristics: BT.709
Matrix coefficients: BT.709

Audio
ID: 2
Format: E-AC-3
Format/Info: Enhanced AC-3
Commercial name: Dolby Digital Plus
Codec ID: A_EAC3
Duration: 47 min 31 s
Bit rate mode: Constant
Bit rate: 640 kb/s
Channel(s): 6 channels
Channel layout: L R C LFE Ls Rs
Sampling rate: 48.0 kHz
Frame rate: 31.250 FPS (1536 SPF)
Compression mode: Lossy
Stream size: 218 MiB (11%)
Language: English
Service kind: Complete Main
Default: Yes
Forced: No

Text #1
ID: 3
Format: PGS
Codec ID: S_HDMV/PGS
Codec ID/Info: Picture based subtitle format used on BDs/HD-DVDs
Duration: 46 min 47 s
Bit rate: 35.3 kb/s
Frame rate: 0.405 FPS
Count of elements: 1136
Stream size: 11.8 MiB (1%)
Language: English
Default: Yes
Forced: No

Text #2
ID: 4
Format: PGS
Codec ID: S_HDMV/PGS
Codec ID/Info: Picture based subtitle format used on BDs/HD-DVDs
Duration: 46 min 51 s
Bit rate: 38.2 kb/s
Frame rate: 0.443 FPS
Count of elements: 1244
Stream size: 12.8 MiB (1%)
Language: English
Default: No
Forced: No

ssl  EZTV RSS EZTV Status | EZTV API | DMCA: [email protected]