eztv.tf | eztvstatus.org
Search title:  
TV Packs only
 

90 Day Fiance Before the 90 Days S06E16 One Crazy Summer 720p AMZN WEB-DL DDP2 0 H 264-NTb EZTV

Episode Breakdown
90 Day Fiancé: Before the 90 Days
90 Day Fiancé: Before the 90 Days TV Show S06E16

Season: 6
Episode: 16
Air Date: 17 September, 2023
Download Links
     Torrent Download     Magnet Download
     Anonymous Download
Added 8 months ago by eztv (verified).
Tracker Statistics
Seeds: 1
Peers: 0
Stats generated @ 23:09 on 12th Jun 2024
Torrent Info
Torrent File: 90.Day.Fiance.Before.the.90.Days.S06E16.One.Crazy.Summer.720p.AMZN.WEB-DL.DDP2.0.H.264-NTb[eztv.re].mkv
Torrent Hash: 3B3817D0BE281850C2CDCDBFFCF82E6DD8C7BFB0
Filesize: 3.28 GB
Released: 18th Sep 2023

File Format: MKV (Matroska)
Resolution: 1280x720 px
Aspect Ratio: 16:9
Alternate Releases S L
90 Day Fiance Before the 90 Days S06E16 1080p WEB h264-EDITH 8 0
90 Day Fiance Before the 90 Days S06E16 1080p HEVC x265-MeGusta 7 2
90 Day Fiance Before the 90 Days S06E16 One Crazy Summer 1080p AMZN WEB-DL DDP2 0 H 264-NTb 1 1
90 Day Fiance Before the 90 Days S06E16 XviD-AFG 0 0
90 Day Pillow Talk Before The 90 Days S06E16 1080p WEB h264-CBFM 0 1
90 Day Pillow Talk Before The 90 Days S06E16 XviD-AFG 1 0

90 Day Fiancé: Before the 90 Days S06E16 - One Crazy Summer

Summary:
90 Day Fiance Before the 90 Days S06E16 One Crazy Summer 720p AMZN WEB-DL DDP2 0 H 264-NTb EZTV
90 Day Fiancé: Before the 90 Days S6E16 Screenshot


General
Unique ID: 95608459480335577252898168951500000450 (0x47ED84FE47734F0DA3B8E29412814CC2)
Complete name: 90.Day.Fiance.Before.the.90.Days.S06E16.One.Crazy.Summer.720p.AMZN.WEB-DL.DDP2.0.H.264-NTb.mkv
Format: Matroska
Format version: Version 4
File size: 3.28 GiB
Duration: 1 h 26 min
Overall bit rate: 5 426 kb/s
Frame rate: 24.000 FPS
Writing application: mkvmerge v79.0 ('Funeral Pyres') 64-bit
Writing library: libebml v1.4.4 + libmatroska v1.7.1

Video
ID: 1
Format: AVC
Format/Info: Advanced Video Codec
Format profile: [email protected]
Format settings: CABAC / 4 Ref Frames
Format settings, CABAC: Yes
Format settings, Reference frames: 4 frames
Codec ID: V_MPEG4/ISO/AVC
Duration: 1 h 26 min
Bit rate mode: Constant
Bit rate: 5 199 kb/s
Nominal bit rate: 6 000 kb/s
Width: 1 280 pixels
Height: 720 pixels
Display aspect ratio: 16:9
Frame rate mode: Constant
Frame rate: 24.000 FPS
Color space: YUV
Chroma subsampling: 4:2:0
Bit depth: 8 bits
Scan type: Progressive
Bits/(Pixel*Frame): 0.235
Stream size: 3.14 GiB (96%)
Default: Yes
Forced: No
Color range: Limited
Color primaries: BT.709
Transfer characteristics: BT.709
Matrix coefficients: BT.709

Audio
ID: 2
Format: E-AC-3
Format/Info: Enhanced AC-3
Commercial name: Dolby Digital Plus
Codec ID: A_EAC3
Duration: 1 h 26 min
Bit rate mode: Constant
Bit rate: 224 kb/s
Channel(s): 2 channels
Channel layout: L R
Sampling rate: 48.0 kHz
Frame rate: 31.250 FPS (1536 SPF)
Compression mode: Lossy
Stream size: 139 MiB (4%)
Language: English (US)
Service kind: Complete Main
Default: Yes
Forced: No

Text #1
ID: 3
Format: UTF-8
Codec ID: S_TEXT/UTF8
Codec ID/Info: UTF-8 Plain Text
Duration: 1 h 26 min
Bit rate: 70 b/s
Frame rate: 0.251 FPS
Count of elements: 1299
Stream size: 44.8 KiB (0%)
Language: English (US)
Default: No
Forced: No

Text #2
ID: 4
Format: UTF-8
Codec ID: S_TEXT/UTF8
Codec ID/Info: UTF-8 Plain Text
Duration: 1 h 26 min
Bit rate: 78 b/s
Frame rate: 0.274 FPS
Count of elements: 1422
Stream size: 49.4 KiB (0%)
Title: SDH
Language: English (US)
Default: No
Forced: No
ssl  EZTV RSS EZTV Status | EZTV API | DMCA: [email protected]