eztv.tf | eztvstatus.org
Search title:  
TV Packs only
 

Billions S07E05 The Gulag Archipelago 1080p AMZN WEB-DL DDP5 1 H 264-NTb EZTV

Episode Breakdown
Billions
Billions TV Show S07E05

Season: 7
Episode: 5
Air Date: 8 September, 2023
Download Links
     Torrent Download     Magnet Download
     Anonymous Download
Added 10 months ago by eztv (verified).
Tracker Statistics
Seeds: 1
Peers: 1
Stats generated @ 01:45 on 15th Jul 2024
Torrent Info
Torrent File: 1c39bf4dcf0747feb057748ac90d5057[eztv.re].mkv
Torrent Hash: B0D05E0835F284B09299EEE4A7E38600C80B293B
Filesize: 2.00 GB
Released: 8th Sep 2023

File Format: MKV (Matroska)
Resolution: 1920x1080 px
Aspect Ratio: 16:9
Alternate Releases S L
Billions S07E05 720p HEVC x265-MeGusta 10 1
Billions S07E05 The Gulag Archipelago 720p AMZN WEB-DL DDP5 1 H 264-NTb 4 3
Billions S07E05 720p WEB h264-EDITH 4 2
Billions S07E05 WEBRip x264-XEN0N 1 1
Billions S07E05 1080p HEVC x265-MeGusta 12 1
Billions S07E05 MULTI 1080p WEB x264-HiggsBoson 1 2
Billions S07E05 The Gulag Archipelago 1080p HMAX WEB-DL DDP5 1 x264-NTb 6 8

Billions S07E05 - The Gulag Archipelago

Summary:

Prince clashes with his employees over who has ultimate authority. Ira turns to Chuck for help with an embarrassing problem. Wendy and Luke forge a connection. Sacker confronts a figure from her past who poses a threat to her future.



Billions S07E05 The Gulag Archipelago 1080p AMZN WEB-DL DDP5 1 H 264-NTb EZTV
Billions S7E5 Screenshot


General
Unique ID: 256012419640225711318013567505989889263 (0xC09A32D1AEF0AD47E0883747A49BECEF)
Complete name: 1c39bf4dcf0747feb057748ac90d5057.mkv
Format: Matroska
Format version: Version 4
File size: 2.00 GiB
Duration: 48 min 41 s
Overall bit rate: 5 894 kb/s
Frame rate: 23.976 FPS
Writing application: mkvmerge v78.0 ('Running') 64-bit
Writing library: libebml v1.4.4 + libmatroska v1.7.1

Video
ID: 1
Format: AVC
Format/Info: Advanced Video Codec
Format profile: High@L4
Format settings: CABAC / 4 Ref Frames
Format settings, CABAC: Yes
Format settings, Reference frames: 4 frames
Codec ID: V_MPEG4/ISO/AVC
Duration: 48 min 41 s
Bit rate mode: Constant
Bit rate: 5 252 kb/s
Nominal bit rate: 10 000 kb/s
Width: 1 920 pixels
Height: 1 080 pixels
Display aspect ratio: 16:9
Frame rate mode: Constant
Frame rate: 23.976 (24000/1001) FPS
Color space: YUV
Chroma subsampling: 4:2:0
Bit depth: 8 bits
Scan type: Progressive
Bits/(Pixel*Frame): 0.106
Stream size: 1.79 GiB (89%)
Default: Yes
Forced: No
Color range: Limited
Color primaries: BT.709
Transfer characteristics: BT.709
Matrix coefficients: BT.709

Audio
ID: 2
Format: E-AC-3
Format/Info: Enhanced AC-3
Commercial name: Dolby Digital Plus
Codec ID: A_EAC3
Duration: 48 min 41 s
Bit rate mode: Constant
Bit rate: 640 kb/s
Channel(s): 6 channels
Channel layout: L R C LFE Ls Rs
Sampling rate: 48.0 kHz
Frame rate: 31.250 FPS (1536 SPF)
Compression mode: Lossy
Delay relative to video: 14 ms
Stream size: 223 MiB (11%)
Language: English (US)
Service kind: Complete Main
Default: Yes
Forced: No

Text #1
ID: 3
Format: UTF-8
Codec ID: S_TEXT/UTF8
Codec ID/Info: UTF-8 Plain Text
Duration: 47 min 53 s
Bit rate: 91 b/s
Frame rate: 0.335 FPS
Count of elements: 964
Stream size: 32.2 KiB (0%)
Language: English (US)
Default: No
Forced: No

Text #2
ID: 4
Format: UTF-8
Codec ID: S_TEXT/UTF8
Codec ID/Info: UTF-8 Plain Text
Duration: 47 min 57 s
Bit rate: 94 b/s
Frame rate: 0.347 FPS
Count of elements: 997
Stream size: 33.1 KiB (0%)
Title: SDH
Language: English (US)
Default: No
Forced: No

ssl  EZTV RSS EZTV Status | EZTV API | DMCA: [email protected]