eztv.tf | eztvstatus.org
Search title:  
TV Packs only
 

Ancient Empires S01E03 Cleopatra 720p AMZN WEB-DL DDP2 0 H 264-NTb EZTV

Episode Breakdown
Ancient Empires
Ancient Empires TV Show S01E03

Season: 1
Episode: 3
Air Date: 6 September, 2023
Download Links
     Torrent Download     Magnet Download
     Anonymous Download
Added 8 months ago by eztv (verified).
Tracker Statistics
Seeds: 0
Peers: 1
Stats generated @ 07:16 on 25th May 2024
Torrent Info
Torrent File: Ancient.Empires.S01E03.Cleopatra.720p.AMZN.WEB-DL.DDP2.0.H.264-NTb[eztv.re].mkv
Torrent Hash: 46110C05146D8FA8EB7F3E30914D3C353FF009B4
Filesize: 1.88 GB
Released: 7th Sep 2023

File Format: MKV (Matroska)
Resolution: 1280x720 px
Aspect Ratio: 16:9
Alternate Releases S L
Ancient Empires S01E03 1080p WEB h264-EDITH 0 1
Ancient Empires S01E03 WEBRip x264-XEN0N 8 3
Ancient Empires S01E03 XviD-AFG 7 3
Ancient Empires S01E03 1080p HEVC x265-MeGusta 9 2
Ancient Empires S01E03 Cleopatra 1080p AMZN WEB-DL DDP2 0 H 264-NTb 0 0
Ancient Empires S01E03 480p x264-mSD 7 1

Ancient Empires S01E03 - Cleopatra

Summary:

The enigmatic Egyptian Queen's untold true story is one of a ruthless genius, doing anything necessary to cling onto power in the face of an aggressively expanding Roman Empire. But as Cleopatra increases her influence across the Mediterranean, her ambitions grow--and new enemies rise up against her.



Ancient Empires S01E03 Cleopatra 720p AMZN WEB-DL DDP2 0 H 264-NTb EZTV
Ancient Empires S1E3 Screenshot


General
Unique ID: 323757221938962359364541590270869286333 (0xF3915F72BAD16A2C210BD284E388ADBD)
Complete name: Ancient.Empires.S01E03.Cleopatra.720p.AMZN.WEB-DL.DDP2.0.H.264-NTb.mkv
Format: Matroska
Format version: Version 4
File size: 1.88 GiB
Duration: 1 h 26 min
Overall bit rate: 3 103 kb/s
Frame rate: 23.976 FPS
Writing application: mkvmerge v79.0 ('Funeral Pyres') 64-bit
Writing library: libebml v1.4.4 + libmatroska v1.7.1

Video
ID: 1
Format: AVC
Format/Info: Advanced Video Codec
Format profile: [email protected]
Format settings: CABAC / 4 Ref Frames
Format settings, CABAC: Yes
Format settings, Reference frames: 4 frames
Codec ID: V_MPEG4/ISO/AVC
Duration: 1 h 26 min
Bit rate mode: Constant
Bit rate: 2 877 kb/s
Nominal bit rate: 6 000 kb/s
Width: 1 280 pixels
Height: 720 pixels
Display aspect ratio: 16:9
Frame rate mode: Constant
Frame rate: 23.976 (24000/1001) FPS
Color space: YUV
Chroma subsampling: 4:2:0
Bit depth: 8 bits
Scan type: Progressive
Bits/(Pixel*Frame): 0.130
Stream size: 1.74 GiB (93%)
Default: Yes
Forced: No
Color range: Limited
Color primaries: BT.709
Transfer characteristics: BT.709
Matrix coefficients: BT.709

Audio
ID: 2
Format: E-AC-3
Format/Info: Enhanced AC-3
Commercial name: Dolby Digital Plus
Codec ID: A_EAC3
Duration: 1 h 26 min
Bit rate mode: Constant
Bit rate: 224 kb/s
Channel(s): 2 channels
Channel layout: L R
Sampling rate: 48.0 kHz
Frame rate: 31.250 FPS (1536 SPF)
Compression mode: Lossy
Stream size: 139 MiB (7%)
Language: English (US)
Service kind: Complete Main
Default: Yes
Forced: No

Text #1
ID: 3
Format: UTF-8
Codec ID: S_TEXT/UTF8
Codec ID/Info: UTF-8 Plain Text
Duration: 1 h 26 min
Bit rate: 83 b/s
Frame rate: 0.266 FPS
Count of elements: 1376
Stream size: 52.9 KiB (0%)
Language: English (US)
Default: No
Forced: No

Text #2
ID: 4
Format: UTF-8
Codec ID: S_TEXT/UTF8
Codec ID/Info: UTF-8 Plain Text
Duration: 1 h 26 min
Bit rate: 87 b/s
Frame rate: 0.284 FPS
Count of elements: 1474
Stream size: 55.7 KiB (0%)
Title: SDH
Language: English (US)
Default: No
Forced: No

ssl  EZTV RSS EZTV Status | EZTV API | DMCA: [email protected]