eztv.tf | eztvstatus.org
Search title:  
TV Packs only
 

Billions S07E01 Tower of London 1080p HMAX WEB-DL DDP5 1 x264-NTb EZTV

Episode Breakdown
Billions
Billions TV Show S07E01

Season: 7
Episode: 1
Air Date: 11 August, 2023
Download Links
     Torrent Download     Magnet Download
     Anonymous Download
Added 9 months ago by eztv (verified).
Tracker Statistics
Seeds: 7
Peers: 2
Stats generated @ 17:39 on 23rd Jun 2024
Torrent Info
Torrent File: Billions.S07E01.Tower.of.London.1080p.HMAX.WEB-DL.DDP5.1.x264-NTb[eztv.re].mkv
Torrent Hash: 66BC63D48970144F8D1C6580C617B25E47821CF4
Filesize: 3.32 GB
Released: 7th Sep 2023

File Format: MKV (Matroska)
Resolution: 1920x1080 px
Aspect Ratio: 16:9
Alternate Releases S L
Billions S07E01 720p WEB H264-DiMEPiECE 4 1
Billions S07E01 720p HEVC x265-MeGusta 7 0
Billions S07E01 720p WEB x265-MiNX 13 1
Billions S07E01 MULTi 1080p WEB H264-AMB3R 1 3
Billions S07E01 1080p WEB-DL DDP5 1 x264-AOC 6 5
Billions S07E01 XviD-AFG 4 0
Billions S07E01 720p x265-T0PAZ 6 1

Billions S07E01 - Tower of London

Summary:

Prince's political ambitions come with a surprising twist, and his intentions are met with skepticism. Wendy, Wags and Taylor turn to an old friend for guidance. Chuck aligns with an unlikely ally in hopes of leveraging his freedom.



Billions S07E01 Tower of London 1080p HMAX WEB-DL DDP5 1 x264-NTb EZTV
Billions S7E1 Screenshot


General
Unique ID: 331288845191291272964335528496413999722 (0xF93BE924EA6578D58205AAD70257026A)
Complete name: Billions.S07E01.Tower.of.London.1080p.HMAX.WEB-DL.DDP5.1.x264-NTb.mkv
Format: Matroska
Format version: Version 4
File size: 3.32 GiB
Duration: 55 min 42 s
Overall bit rate mode: Variable
Overall bit rate: 8 540 kb/s
Frame rate: 23.976 FPS
Writing application: mkvmerge v78.0 ('Running') 64-bit
Writing library: libebml v1.4.4 + libmatroska v1.7.1

Video
ID: 1
Format: AVC
Format/Info: Advanced Video Codec
Format profile: High@L4
Format settings: CABAC / 4 Ref Frames
Format settings, CABAC: Yes
Format settings, Reference frames: 4 frames
Codec ID: V_MPEG4/ISO/AVC
Duration: 55 min 42 s
Bit rate mode: Variable
Bit rate: 8 250 kb/s
Maximum bit rate: 12.4 Mb/s
Width: 1 920 pixels
Height: 1 080 pixels
Display aspect ratio: 16:9
Frame rate mode: Constant
Frame rate: 23.976 (24000/1001) FPS
Color space: YUV
Chroma subsampling: 4:2:0
Bit depth: 8 bits
Scan type: Progressive
Bits/(Pixel*Frame): 0.166
Stream size: 3.07 GiB (92%)
Writing library: x264 core 157 r2965 861cec4
Encoding settings: cabac=1 / ref=4 / deblock=1:0:0 / analyse=0x3:0x113 / me=hex / subme=7 / psy=1 / psy_rd=1.00:0.00 / mixed_ref=1 / me_range=16 / chroma_me=1 / trellis=1 / 8x8dct=1 / cqm=0 / deadzone=21,11 / fast_pskip=1 / chroma_qp_offset=-2 / threads=34 / lookahead_threads=5 / sliced_threads=0 / nr=0 / decimate=1 / interlaced=0 / bluray_compat=0 / constrained_intra=0 / bframes=3 / b_pyramid=2 / b_adapt=1 / b_bias=0 / direct=1 / weightb=1 / open_gop=0 / weightp=2 / keyint=100 / keyint_min=100 / scenecut=40 / intra_refresh=0 / rc_lookahead=40 / rc=2pass / mbtree=1 / bitrate=8250 / ratetol=1.0 / qcomp=0.60 / qpmin=0 / qpmax=69 / qpstep=4 / cplxblur=20.0 / qblur=0.5 / vbv_maxrate=12375 / vbv_bufsize=6187 / nal_hrd=vbr / filler=0 / ip_ratio=1.40 / aq=1:1.00
Default: Yes
Forced: No
Color range: Limited
Color primaries: BT.709
Transfer characteristics: BT.709
Matrix coefficients: BT.709

Audio
ID: 2
Format: E-AC-3
Format/Info: Enhanced AC-3
Commercial name: Dolby Digital Plus
Codec ID: A_EAC3
Duration: 55 min 42 s
Bit rate mode: Constant
Bit rate: 640 kb/s
Channel(s): 6 channels
Channel layout: L R C LFE Ls Rs
Sampling rate: 48.0 kHz
Frame rate: 31.250 FPS (1536 SPF)
Compression mode: Lossy
Stream size: 255 MiB (7%)
Language: English
Service kind: Complete Main
Default: Yes
Forced: No

Text #1
ID: 3
Format: UTF-8
Codec ID: S_TEXT/UTF8
Codec ID/Info: UTF-8 Plain Text
Duration: 54 min 54 s
Bit rate: 97 b/s
Frame rate: 0.257 FPS
Count of elements: 846
Stream size: 39.4 KiB (0%)
Language: English (US)
Default: No
Forced: No

Text #2
ID: 4
Format: UTF-8
Codec ID: S_TEXT/UTF8
Codec ID/Info: UTF-8 Plain Text
Duration: 54 min 56 s
Bit rate: 133 b/s
Frame rate: 0.228 FPS
Count of elements: 750
Stream size: 53.6 KiB (0%)
Language: Bulgarian (BG)
Default: No
Forced: No

Text #3
ID: 5
Format: UTF-8
Codec ID: S_TEXT/UTF8
Codec ID/Info: UTF-8 Plain Text
Duration: 54 min 45 s
Bit rate: 91 b/s
Frame rate: 0.258 FPS
Count of elements: 846
Stream size: 36.6 KiB (0%)
Language: Czech (CZ)
Default: No
Forced: No

Text #4
ID: 6
Format: UTF-8
Codec ID: S_TEXT/UTF8
Codec ID/Info: UTF-8 Plain Text
Duration: 54 min 49 s
Bit rate: 74 b/s
Frame rate: 0.194 FPS
Count of elements: 639
Stream size: 29.7 KiB (0%)
Language: Danish (DK)
Default: No
Forced: No

Text #5
ID: 7
Format: UTF-8
Codec ID: S_TEXT/UTF8
Codec ID/Info: UTF-8 Plain Text
Duration: 55 min 30 s
Bit rate: 87 b/s
Frame rate: 0.233 FPS
Count of elements: 776
Stream size: 35.5 KiB (0%)
Language: Finnish (FI)
Default: No
Forced: No

Text #6
ID: 8
Format: UTF-8
Codec ID: S_TEXT/UTF8
Codec ID/Info: UTF-8 Plain Text
Duration: 54 min 53 s
Bit rate: 82 b/s
Frame rate: 0.221 FPS
Count of elements: 728
Stream size: 33.1 KiB (0%)
Language: Croatian (HR)
Default: No
Forced: No

Text #7
ID: 9
Format: UTF-8
Codec ID: S_TEXT/UTF8
Codec ID/Info: UTF-8 Plain Text
Duration: 54 min 59 s
Bit rate: 91 b/s
Frame rate: 0.255 FPS
Count of elements: 841
Stream size: 36.9 KiB (0%)
Language: Hungarian (HU)
Default: No
Forced: No

Text #8
ID: 10
Format: UTF-8
Codec ID: S_TEXT/UTF8
Codec ID/Info: UTF-8 Plain Text
Duration: 54 min 53 s
Bit rate: 128 b/s
Frame rate: 0.221 FPS
Count of elements: 728
Stream size: 51.8 KiB (0%)
Language: Macedonian (MK)
Default: No
Forced: No

Text #9
ID: 11
Format: UTF-8
Codec ID: S_TEXT/UTF8
Codec ID/Info: UTF-8 Plain Text
Duration: 55 min 30 s
Bit rate: 69 b/s
Frame rate: 0.202 FPS
Count of elements: 672
Stream size: 28.2 KiB (0%)
Language: Norwegian (NO)
Default: No
Forced: No

Text #10
ID: 12
Format: UTF-8
Codec ID: S_TEXT/UTF8
Codec ID/Info: UTF-8 Plain Text
Duration: 54 min 56 s
Bit rate: 70 b/s
Frame rate: 0.251 FPS
Count of elements: 828
Stream size: 28.3 KiB (0%)
Language: Polish (PL)
Default: No
Forced: No

Text #11
ID: 13
Format: UTF-8
Codec ID: S_TEXT/UTF8
Codec ID/Info: UTF-8 Plain Text
Duration: 55 min 30 s
Bit rate: 84 b/s
Frame rate: 0.250 FPS
Count of elements: 833
Stream size: 34.2 KiB (0%)
Language: Portuguese (PT)
Default: No
Forced: No

Text #12
ID: 14
Format: UTF-8
Codec ID: S_TEXT/UTF8
Codec ID/Info: UTF-8 Plain Text
Duration: 54 min 54 s
Bit rate: 88 b/s
Frame rate: 0.242 FPS
Count of elements: 798
Stream size: 35.6 KiB (0%)
Language: Romanian (RO)
Default: No
Forced: No

Text #13
ID: 15
Format: UTF-8
Codec ID: S_TEXT/UTF8
Codec ID/Info: UTF-8 Plain Text
Duration: 54 min 53 s
Bit rate: 77 b/s
Frame rate: 0.221 FPS
Count of elements: 728
Stream size: 31.0 KiB (0%)
Language: Slovenian (SI)
Default: No
Forced: No

Text #14
ID: 16
Format: UTF-8
Codec ID: S_TEXT/UTF8
Codec ID/Info: UTF-8 Plain Text
Duration: 54 min 53 s
Bit rate: 81 b/s
Frame rate: 0.221 FPS
Count of elements: 728
Stream size: 32.8 KiB (0%)
Language: Serbian-Latn-RS
Default: No
Forced: No

Text #15
ID: 17
Format: UTF-8
Codec ID: S_TEXT/UTF8
Codec ID/Info: UTF-8 Plain Text
Duration: 55 min 30 s
Bit rate: 76 b/s
Frame rate: 0.199 FPS
Count of elements: 663
Stream size: 31.0 KiB (0%)
Language: Swedish (SE)
Default: No
Forced: No

Menu
00:00:00.000: Chapter 1
00:01:59.536: Intro
00:02:14.425: Chapter 2
00:54:50.790: Credits

ssl  EZTV RSS EZTV Status | EZTV API | DMCA: [email protected]