eztv.tf | eztvstatus.org
Search title:  
TV Packs only
 

Ancient Empires S01E01 Alexander the Great 720p AMZN WEB-DL DDP2 0 H 264-NTb EZTV

Episode Breakdown
Ancient Empires
Ancient Empires TV Show S01E01

Season: 1
Episode: 1
Air Date: 4 September, 2023
Download Links
     Torrent Download     Magnet Download
     Anonymous Download
Added 8 months ago by eztv (verified).
Tracker Statistics
Seeds: 0
Peers: 1
Stats generated @ 07:20 on 25th May 2024
Torrent Info
Torrent File: Ancient.Empires.S01E01.Alexander.the.Great.720p.AMZN.WEB-DL.DDP2.0.H.264-NTb[eztv.re].mkv
Torrent Hash: 6C3C92661BDDEAA79911B38108D248909FF83A18
Filesize: 2.94 GB
Released: 5th Sep 2023

File Format: MKV (Matroska)
Resolution: 1280x720 px
Aspect Ratio: 16:9
Alternate Releases S L
Ancient Empires S01E01 1080p WEB h264-EDITH 1 0
Ancient Empires S01E01 XviD-AFG 2 0
Ancient Empires S01E01 1080p HEVC x265-MeGusta 11 1
Ancient Empires S01E01 Alexander the Great 1080p AMZN WEB-DL DDP2 0 H 264-NTb 12 1
Ancient Empires S01E01 480p x264-mSD 11 2

Ancient Empires S01E01 - Alexander the Great

Summary:

The greatest conqueror and general in history, Alexander the Great of Macedon built one of the largest empires ever seen in just 13 years. But as he continues to push east, Alexander not only has to contend with an increasingly powerful enemy, but also the loyalty of his men, and his own growing dark side.



Ancient Empires S01E01 Alexander the Great 720p AMZN WEB-DL DDP2 0 H 264-NTb EZTV
Ancient Empires S1E1 Screenshot


General
Unique ID: 143724623637332717068051407909514594159 (0x6C205B0B48123CC530E6092579F3476F)
Complete name: Ancient.Empires.S01E01.Alexander.the.Great.720p.AMZN.WEB-DL.DDP2.0.H.264-NTb.mkv
Format: Matroska
Format version: Version 4
File size: 2.94 GiB
Duration: 1 h 47 min
Overall bit rate: 3 907 kb/s
Frame rate: 23.976 FPS
Writing application: mkvmerge v79.0 ('Funeral Pyres') 64-bit
Writing library: libebml v1.4.4 + libmatroska v1.7.1

Video
ID: 1
Format: AVC
Format/Info: Advanced Video Codec
Format profile: [email protected]
Format settings: CABAC / 4 Ref Frames
Format settings, CABAC: Yes
Format settings, Reference frames: 4 frames
Codec ID: V_MPEG4/ISO/AVC
Duration: 1 h 47 min
Bit rate mode: Constant
Bit rate: 3 681 kb/s
Nominal bit rate: 6 000 kb/s
Width: 1 280 pixels
Height: 720 pixels
Display aspect ratio: 16:9
Frame rate mode: Constant
Frame rate: 23.976 (24000/1001) FPS
Color space: YUV
Chroma subsampling: 4:2:0
Bit depth: 8 bits
Scan type: Progressive
Bits/(Pixel*Frame): 0.167
Stream size: 2.77 GiB (94%)
Default: Yes
Forced: No
Color range: Limited
Color primaries: BT.709
Transfer characteristics: BT.709
Matrix coefficients: BT.709

Audio
ID: 2
Format: E-AC-3
Format/Info: Enhanced AC-3
Commercial name: Dolby Digital Plus
Codec ID: A_EAC3
Duration: 1 h 47 min
Bit rate mode: Constant
Bit rate: 224 kb/s
Channel(s): 2 channels
Channel layout: L R
Sampling rate: 48.0 kHz
Frame rate: 31.250 FPS (1536 SPF)
Compression mode: Lossy
Stream size: 173 MiB (6%)
Language: English (US)
Service kind: Complete Main
Default: Yes
Forced: No

Text #1
ID: 3
Format: UTF-8
Codec ID: S_TEXT/UTF8
Codec ID/Info: UTF-8 Plain Text
Duration: 1 h 47 min
Bit rate: 76 b/s
Frame rate: 0.262 FPS
Count of elements: 1685
Stream size: 60.3 KiB (0%)
Language: English (US)
Default: No
Forced: No

Text #2
ID: 4
Format: UTF-8
Codec ID: S_TEXT/UTF8
Codec ID/Info: UTF-8 Plain Text
Duration: 1 h 47 min
Bit rate: 82 b/s
Frame rate: 0.287 FPS
Count of elements: 1849
Stream size: 64.8 KiB (0%)
Title: SDH
Language: English (US)
Default: No
Forced: No

ssl  EZTV RSS EZTV Status | EZTV API | DMCA: [email protected]