eztv.tf | eztvstatus.org
Search title:  
TV Packs only
 

Billions S07E03 Winston Dick Energy 1080p AMZN WEB-DL DDP5 1 H 264-NTb EZTV

Episode Breakdown
Billions
Billions TV Show S07E03

Season: 7
Episode: 3
Air Date: 25 August, 2023
Download Links
     Torrent Download     Magnet Download
     Anonymous Download
Added 9 months ago by eztv (verified).
Tracker Statistics
Seeds: 11
Peers: 0
Stats generated @ 21:27 on 22nd Jun 2024
Torrent Info
Torrent File: 56fdbb4d49bb4958976e3afc818fb6e9[eztv.re].mkv
Torrent Hash: 03EA08F9ED276E2EC42A0C293B3498211EC913C1
Filesize: 2.40 GB
Released: 25th Aug 2023

File Format: MKV (Matroska)
Resolution: 1920x1080 px
Aspect Ratio: 16:9
Alternate Releases S L
Billions S07E03 Winston Dick Energy 720p AMZN WEB-DL DDP5 1 H 264-NTb 11 2
Billions S07E03 1080p WEB h264-EDITH 9 0
Billions S07E03 480p x264-mSD 5 0
Billions S07E03 720p x265-T0PAZ 0 0
Billions S07E03 720p WEB x265-MiNX 8 0
Billions S07E03 720p x264-FENiX 0 0
Billions S07E03 1080p x265-ELiTE 1 0

Billions S07E03 - Winston Dick Energy

Summary:

Prince attempts to leverage a past employee's work for his own gain. Chuck rallies the troops at his old stomping grounds. A betrayal from within Prince Cap shakes Wendy's confidence.



Billions S07E03 Winston Dick Energy 1080p AMZN WEB-DL DDP5 1 H 264-NTb EZTV
Billions S7E3 Screenshot


General
Unique ID: 113721033594548745541739410404124279545 (0x558DDFD810A6451E508D3AC1230242F9)
Complete name: 56fdbb4d49bb4958976e3afc818fb6e9.mkv
Format: Matroska
Format version: Version 4
File size: 2.40 GiB
Duration: 57 min 57 s
Overall bit rate: 5 919 kb/s
Frame rate: 23.976 FPS
Writing application: mkvmerge v78.0 ('Running') 64-bit
Writing library: libebml v1.4.4 + libmatroska v1.7.1

Video
ID: 1
Format: AVC
Format/Info: Advanced Video Codec
Format profile: High@L4
Format settings: CABAC / 4 Ref Frames
Format settings, CABAC: Yes
Format settings, Reference frames: 4 frames
Codec ID: V_MPEG4/ISO/AVC
Duration: 57 min 57 s
Bit rate mode: Constant
Bit rate: 5 277 kb/s
Nominal bit rate: 10 000 kb/s
Width: 1 920 pixels
Height: 1 080 pixels
Display aspect ratio: 16:9
Frame rate mode: Constant
Frame rate: 23.976 (24000/1001) FPS
Color space: YUV
Chroma subsampling: 4:2:0
Bit depth: 8 bits
Scan type: Progressive
Bits/(Pixel*Frame): 0.106
Stream size: 2.14 GiB (89%)
Default: Yes
Forced: No
Color range: Limited
Color primaries: BT.709
Transfer characteristics: BT.709
Matrix coefficients: BT.709

Audio
ID: 2
Format: E-AC-3
Format/Info: Enhanced AC-3
Commercial name: Dolby Digital Plus
Codec ID: A_EAC3
Duration: 57 min 57 s
Bit rate mode: Constant
Bit rate: 640 kb/s
Channel(s): 6 channels
Channel layout: L R C LFE Ls Rs
Sampling rate: 48.0 kHz
Frame rate: 31.250 FPS (1536 SPF)
Compression mode: Lossy
Delay relative to video: 14 ms
Stream size: 265 MiB (11%)
Language: English (US)
Service kind: Complete Main
Default: Yes
Forced: No

Text #1
ID: 3
Format: UTF-8
Codec ID: S_TEXT/UTF8
Codec ID/Info: UTF-8 Plain Text
Duration: 57 min 48 s
Bit rate: 93 b/s
Frame rate: 0.339 FPS
Count of elements: 1176
Stream size: 39.7 KiB (0%)
Language: English (US)
Default: No
Forced: No

Text #2
ID: 4
Format: UTF-8
Codec ID: S_TEXT/UTF8
Codec ID/Info: UTF-8 Plain Text
Duration: 57 min 48 s
Bit rate: 97 b/s
Frame rate: 0.351 FPS
Count of elements: 1218
Stream size: 41.2 KiB (0%)
Title: SDH
Language: English (US)
Default: No
Forced: No
ssl  EZTV RSS EZTV Status | EZTV API | DMCA: [email protected]