eztv.tf | eztvstatus.org
Search title:  
TV Packs only
 

Billions S07E02 1080p x265-ELiTE EZTV

Episode Breakdown
Billions
Billions TV Show S07E02

Season: 7
Episode: 2
Air Date: 18 August, 2023
Download Links
     Torrent Download     Magnet Download
     Anonymous Download
Added 9 months ago by eztv (verified).
Tracker Statistics
Seeds: 6
Peers: 0
Stats generated @ 22:40 on 12th Jun 2024
Torrent Info
Torrent File: Billions.S07E02.1080p.x265-ELiTE[eztv.re].mkv
Torrent Hash: 3B1157FCAAF75E9E4F1A6841696BEAB4E6C82B00
Filesize: 560 MB
Released: 18th Aug 2023

File Format: MKV (Matroska)
Resolution: 1920x1080 px
Aspect Ratio: 16:9
Alternate Releases S L
Billions S07E02 720p WEB h264-EDITH 11 1
Billions S07E02 720p WEB x265-MiNX 9 1
Billions S07E02 720p HEVC x265-MeGusta 8 1
Billions S07E02 Original Sin 1080p AMZN WEB-DL DDP5 1 H 264-NTb 2 1
Billions S07E02 1080p HEVC x265-MeGusta 12 1
Billions S07E02 720p x265-T0PAZ 1 0
Billions S07E02 1080p WEB-DL DDP5 1 x264-AOC 3 6

Billions S07E02 - Original Sin

Summary:

Prince recruits campaign support and encourages the Prince Cappers to aim high under a new directive for big swings. Chuck negotiates with a ghost from his past to advance a new agenda. Axe shares a glimpse into his new life.



Billions S07E02 1080p x265-ELiTE EZTV
Billions S7E2 Screenshot


General
Unique ID: 145655454360770276346332573038957424746 (0x6D9438593D1785F2DCE77E06FC95F06A)
Complete name: Billions.S07E02.1080p.x265-ELiTE.mkv
Format: Matroska
Format version: Version 4
File size: 560 MiB
Duration: 1 h 0 min
Overall bit rate: 1 292 kb/s
Frame rate: 23.976 FPS
Movie name: Billions.S07E02
Writing application: Lavf59.16.100
Writing library: Lavf59.16.100
Comment: ELiTE-Fri-18-Aug-2023,06:04:25,1080p,23,faster,6559786,0,-1
ErrorDetectionType: Per level 1

Video
ID: 1
Format: HEVC
Format/Info: High Efficiency Video Coding
Format profile: Main@L4@Main
Codec ID: V_MPEGH/ISO/HEVC
Duration: 1 h 0 min
Bit rate: 818 kb/s
Width: 1 920 pixels
Height: 1 080 pixels
Display aspect ratio: 16:9
Frame rate mode: Constant
Frame rate: 23.976 (24000/1001) FPS
Color space: YUV
Chroma subsampling: 4:2:0 (Type 0)
Bit depth: 8 bits
Bits/(Pixel*Frame): 0.016
Stream size: 355 MiB (63%)
Writing library: x265 0.0:[Linux][GCC 4.8.5][64 bit] 8bit
Encoding settings: cpuid=1111039 / frame-threads=4 / wpp / no-pmode / no-pme / no-psnr / no-ssim / log-level=2 / input-csp=1 / input-res=1920x1080 / interlace=0 / total-frames=0 / level-idc=0 / high-tier=1 / uhd-bd=0 / ref=2 / no-allow-non-conformance / no-repeat-headers / annexb / no-aud / no-hrd / info / hash=0 / no-temporal-layers / open-gop / min-keyint=23 / keyint=250 / gop-lookahead=0 / bframes=4 / b-adapt=0 / b-pyramid / bframe-bias=0 / rc-lookahead=15 / lookahead-slices=6 / scenecut=40 / hist-scenecut=0 / radl=0 / no-splice / no-intra-refresh / ctu=64 / min-cu-size=8 / no-rect / no-amp / max-tu-size=32 / tu-inter-depth=1 / tu-intra-depth=1 / limit-tu=0 / rdoq-level=0 / dynamic-rd=0.00 / no-ssim-rd / signhide / no-tskip / nr-intra=0 / nr-inter=0 / no-constrained-intra / strong-intra-smoothing / max-merge=2 / limit-refs=3 / no-limit-modes / me=1 / subme=2 / merange=57 / temporal-mvp / no-frame-dup / no-hme / weightp / no-weightb / no-analyze-src-pics / deblock=0:0 / sao / no-sao-non-deblock / rd=2 / selective-sao=4 / early-skip / rskip / fast-intra / no-tskip-fast / no-cu-lossless / no-b-intra / no-splitrd-skip / rdpenalty=0 / psy-rd=2.00 / psy-rdoq=0.00 / no-rd-refine / no-lossless / cbqpoffs=0 / crqpoffs=0 / rc=crf / crf=23.0 / qcomp=0.60 / qpstep=4 / stats-write=0 / stats-read=0 / ipratio=1.40 / pbratio=1.30 / aq-mode=2 / aq-strength=1.00 / cutree / zone-count=0 / no-strict-cbr / qg-size=32 / no-rc-grain / qpmax=69 / qpmin=0 / no-const-vbv / sar=1 / overscan=0 / videoformat=5 / range=0 / colorprim=1 / transfer=1 / colormatrix=1 / chromaloc=1 / chromaloc-top=0 / chromaloc-bottom=0 / display-window=0 / cll=0,0 / min-luma=0 / max-luma=255 / log2-max-poc-lsb=8 / vui-timing-info / vui-hrd-info / slices=1 / no-opt-qp-pps / no-opt-ref-list-length-pps / no-multi-pass-opt-rps / scenecut-bias=0.05 / hist-threshold=0.01 / no-opt-cu-delta-qp / no-aq-motion / no-hdr10 / no-hdr10-opt / no-dhdr10-opt / no-idr-recovery-sei / analysis-reuse-level=0 / analysis-save-reuse-level=0 / analysis-load-reuse-level=0 / scale-factor=0 / refine-intra=0 / refine-inter=0 / refine-mv=1 / refine-ctu-distortion=0 / no-limit-sao / ctu-info=0 / no-lowpass-dct / refine-analysis-type=0 / copy-pic=1 / max-ausize-factor=1.0 / no-dynamic-refine / no-single-sei / no-hevc-aq / no-svt / no-field / qp-adaptation-range=1.00 / no-scenecut-aware-qpconformance-window-offsets / right=0 / bottom=0 / decoder-max-rate=0
Default: Yes
Forced: No
Color range: Limited
Color primaries: BT.709
Transfer characteristics: BT.709
Matrix coefficients: BT.709

Audio
ID: 2
Format: AC-3
Format/Info: Audio Coding 3
Commercial name: Dolby Digital
Codec ID: A_AC3
Duration: 1 h 0 min
Bit rate mode: Constant
Bit rate: 448 kb/s
Channel(s): 6 channels
Channel layout: L R C LFE Ls Rs
Sampling rate: 48.0 kHz
Frame rate: 31.250 FPS (1536 SPF)
Bit depth: 32 bits
Compression mode: Lossy
Delay relative to video: 9 ms
Stream size: 194 MiB (35%)
Writing library: Lavc59.18.100 ac3
Language: English
Service kind: Complete Main
Default: Yes
Forced: No

Text
ID: 3
Format: UTF-8
Codec ID: S_TEXT/UTF8
Codec ID/Info: UTF-8 Plain Text
Duration: 1 h 0 min
Language: English
Default: No
Forced: No
ssl  EZTV RSS EZTV Status | EZTV API | DMCA: [email protected]