eztv.tf | eztvstatus.org
Search title:  
TV Packs only
 

Billions S07E02 720p x264-FENiX EZTV

Episode Breakdown
Billions
Billions TV Show S07E02

Season: 7
Episode: 2
Air Date: 18 August, 2023
Download Links
     Torrent Download     Magnet Download
     Anonymous Download
Added 3 months ago by eztv (verified).
Tracker Statistics
Seeds: 6
Peers: 6
Stats generated @ 00:18 on 2nd Dec 2023
Torrent Info
Torrent File: Billions.S07E02.720p.x264-FENiX[eztv.re].mkv
Torrent Hash: 5C7EE513C73161F1F97D1C7D445678CD68B60C84
Filesize: 498 MB
Released: 18th Aug 2023

File Format: MKV (Matroska)
Resolution: 1280x720 px
Aspect Ratio: 16:9
Alternate Releases S L
Billions S07E02 1080p WEB h264-EDITH 66 21
Billions S07E02 720p WEB h264-EDITH 28 3
Billions S07E02 720p WEB x265-MiNX 5 5
Billions S07E02 480p x264-mSD 11 3
Billions S07E02 720p HEVC x265-MeGusta 8 3
Billions S07E02 Original Sin 1080p AMZN WEB-DL DDP5 1 H 264-NTb 8 4
Billions S07E02 Original Sin 720p AMZN WEB-DL DDP5 1 H 264-NTb 7 3

Billions S07E02 - Original Sin

Summary:

Prince recruits campaign support and encourages the Prince Cappers to aim high under a new directive for big swings. Chuck negotiates with a ghost from his past to advance a new agenda. Axe shares a glimpse into his new life.



Billions S07E02 720p x264-FENiX EZTV
Billions S7E2 Screenshot


General
Unique ID: 138081044324924453207924844252085302289 (0x67E17119EB9CC662CDC2572D85173411)
Complete name: Billions.S07E02.720p.x264-FENiX.mkv
Format: Matroska
Format version: Version 4
File size: 498 MiB
Duration: 1 h 0 min
Overall bit rate: 1 148 kb/s
Frame rate: 23.976 FPS
Movie name: Billions.S07E02
Writing application: Lavf59.16.100
Writing library: Lavf59.16.100
Comment: FENiX-Fri-18-Aug-2023,05:39:27,720p,24,fast,6559786,0,-1
ErrorDetectionType: Per level 1

Video
ID: 1
Format: AVC
Format/Info: Advanced Video Codec
Format profile: [email protected]
Format settings: CABAC / 4 Ref Frames
Format settings, CABAC: Yes
Format settings, Reference frames: 4 frames
Codec ID: V_MPEG4/ISO/AVC
Duration: 1 h 0 min
Bit rate: 677 kb/s
Width: 1 280 pixels
Height: 720 pixels
Display aspect ratio: 16:9
Frame rate mode: Constant
Frame rate: 23.976 (24000/1001) FPS
Color space: YUV
Chroma subsampling: 4:2:0
Bit depth: 8 bits
Scan type: Progressive
Bits/(Pixel*Frame): 0.031
Stream size: 294 MiB (59%)
Writing library: x264 core 163
Encoding settings: cabac=1 / ref=2 / deblock=1:0:0 / analyse=0x3:0x113 / me=hex / subme=6 / psy=1 / psy_rd=1.00:0.00 / mixed_ref=1 / me_range=16 / chroma_me=1 / trellis=1 / 8x8dct=1 / cqm=0 / deadzone=21,11 / fast_pskip=1 / chroma_qp_offset=-2 / threads=22 / lookahead_threads=3 / sliced_threads=0 / nr=0 / decimate=1 / interlaced=0 / bluray_compat=0 / constrained_intra=0 / bframes=3 / b_pyramid=2 / b_adapt=1 / b_bias=0 / direct=1 / weightb=1 / open_gop=0 / weightp=1 / keyint=250 / keyint_min=23 / scenecut=40 / intra_refresh=0 / rc_lookahead=30 / rc=crf / mbtree=1 / crf=24.0 / qcomp=0.60 / qpmin=0 / qpmax=69 / qpstep=4 / ip_ratio=1.40 / aq=1:1.00
Default: Yes
Forced: No
Color range: Limited
Color primaries: BT.709
Transfer characteristics: BT.709
Matrix coefficients: BT.709

Audio
ID: 2
Format: AC-3
Format/Info: Audio Coding 3
Commercial name: Dolby Digital
Codec ID: A_AC3
Duration: 1 h 0 min
Bit rate mode: Constant
Bit rate: 448 kb/s
Channel(s): 6 channels
Channel layout: L R C LFE Ls Rs
Sampling rate: 48.0 kHz
Frame rate: 31.250 FPS (1536 SPF)
Bit depth: 32 bits
Compression mode: Lossy
Delay relative to video: 9 ms
Stream size: 194 MiB (39%)
Writing library: Lavc59.18.100 ac3
Language: English
Service kind: Complete Main
Default: Yes
Forced: No

Text
ID: 3
Format: UTF-8
Codec ID: S_TEXT/UTF8
Codec ID/Info: UTF-8 Plain Text
Duration: 1 h 0 min
Language: English
Default: No
Forced: No
ssl  EZTV RSS EZTV Status | EZTV API | DMCA: [email protected]