eztv.tf | eztvstatus.org
Search title:  
TV Packs only
 

Star Trek Strange New Worlds S02E01 The Broken Circle 1080p AMZN WEB-DL DDP5 1 H 264-NTb EZTV

Episode Breakdown
Star Trek: Strange New Worlds
Star Trek: Strange New Worlds TV Show S02E01

Season: 2
Episode: 1
Air Date: 15 June, 2023
Download Links
     Torrent Download     Magnet Download
     Anonymous Download
Added 1 year ago by eztv (verified).
Tracker Statistics
Seeds: 14
Peers: 0
Stats generated @ 00:07 on 21st Jun 2024
Torrent Info
Torrent File: 78a2c609ee3f4d53b33ac24d41c0a1dc[eztv.re].mkv
Torrent Hash: 6137D6B3EB3FAB33C9AED26B890C2D021FF3E89B
Filesize: 1.91 GB
Released: 15th Jun 2023

File Format: MKV (Matroska)
Resolution: 1920x1080 px
Aspect Ratio: 16:9
Alternate Releases S L
Star Trek Strange New Worlds S01 BDRip x264-STORiES 3 0
Star Trek Strange New Worlds S01 WEBRip x265-ION265 3 2
Star Trek Strange New Worlds S01 720p AMZN WEBRip DDP5 1 x264-MIXED 0 3
Star Trek Strange New Worlds S01 1080p BluRay x265 33 2
Star Trek Strange New Worlds S01 1080p AMZN WEBRip DDP5 1 x264-MIXED 9 0
Star Trek Strange New Worlds S01 720p BluRay x264-STORiES 6 1
Star Trek Strange New Worlds S01 WEBRip x264-ION10 0 2

Star Trek: Strange New Worlds S02E01 - The Broken Circle

Summary:

A distress call from Lt. Noonien-Singh compels Spock to disobey orders and take the U.S.S. Enterprise and its crew into disputed space, risking renewed hostilities with the Klingons in a bid to aid their shipmate.



Star Trek Strange New Worlds S02E01 The Broken Circle 1080p AMZN WEB-DL DDP5 1 H 264-NTb EZTV
Star Trek: Strange New Worlds S2E1 Screenshot


General
Unique ID: 60487851256475761712396562733775792405 (0x2D8189518D8C0B97207967DB609D2915)
Complete name: 78a2c609ee3f4d53b33ac24d41c0a1dc.mkv
Format: Matroska
Format version: Version 4
File size: 1.91 GiB
Duration: 52 min 41 s
Overall bit rate: 5 183 kb/s
Writing application: mkvmerge v77.0 ('Elemental') 64-bit
Writing library: libebml v1.4.4 + libmatroska v1.7.1

Video
ID: 1
Format: AVC
Format/Info: Advanced Video Codec
Format profile: High@L4
Format settings: CABAC / 4 Ref Frames
Format settings, CABAC: Yes
Format settings, Reference frames: 4 frames
Codec ID: V_MPEG4/ISO/AVC
Duration: 52 min 41 s
Bit rate mode: Constant
Bit rate: 4 540 kb/s
Nominal bit rate: 10 000 kb/s
Width: 1 920 pixels
Height: 800 pixels
Display aspect ratio: 2.40:1
Frame rate mode: Constant
Frame rate: 24.000 FPS
Color space: YUV
Chroma subsampling: 4:2:0
Bit depth: 8 bits
Scan type: Progressive
Bits/(Pixel*Frame): 0.123
Stream size: 1.67 GiB (88%)
Default: Yes
Forced: No
Color range: Limited
Color primaries: BT.709
Transfer characteristics: BT.709
Matrix coefficients: BT.709

Audio
ID: 2
Format: E-AC-3
Format/Info: Enhanced AC-3
Commercial name: Dolby Digital Plus
Codec ID: A_EAC3
Duration: 52 min 41 s
Bit rate mode: Constant
Bit rate: 640 kb/s
Channel(s): 6 channels
Channel layout: L R C LFE Ls Rs
Sampling rate: 48.0 kHz
Frame rate: 31.250 FPS (1536 SPF)
Compression mode: Lossy
Stream size: 241 MiB (12%)
Language: English (US)
Service kind: Complete Main
Default: Yes
Forced: No

Text #1
ID: 3
Format: UTF-8
Codec ID: S_TEXT/UTF8
Codec ID/Info: UTF-8 Plain Text
Duration: 50 min 42 s
Bit rate: 65 b/s
Frame rate: 0.256 FPS
Count of elements: 778
Stream size: 24.2 KiB (0%)
Language: English (US)
Default: No
Forced: No

Text #2
ID: 4
Format: UTF-8
Codec ID: S_TEXT/UTF8
Codec ID/Info: UTF-8 Plain Text
Duration: 51 min 5 s
Bit rate: 68 b/s
Frame rate: 0.279 FPS
Count of elements: 855
Stream size: 25.8 KiB (0%)
Title: SDH
Language: English (US)
Default: No
Forced: No
ssl  EZTV RSS EZTV Status | EZTV API | DMCA: [email protected]