eztv.tf | eztvstatus.org
Search title:  
TV Packs only
 

Sesame Street S53E22 720p WEBRip AAC2 0 H264-NTb EZTV

Episode Breakdown
Sesame Street
Sesame Street TV Show S53E22

Season: 53
Episode: 22
Download Links
     Torrent Download     Magnet Download
     Anonymous Download
Added 1 year ago by eztv (verified).
Tracker Statistics
Seeds: 7
Peers: 0
Stats generated @ 02:52 on 16th Apr 2024
Torrent Info
Torrent File: Sesame.Street.S53E22.720p.WEBRip.AAC2.0.H.264-NTb[eztv.re].mkv
Torrent Hash: 05BD017C6C21689D93B6FC7150A1EF69217B3995
Filesize: 480 MB
Released: 30th Mar 2023

File Format: MKV (Matroska)
Resolution: 1280x720 px
Aspect Ratio: 16:9

Episode Description
Sesame Street S53E22 720p WEBRip AAC2 0 H264-NTb EZTV
Sesame Street S53E22 Screenshot
General
Unique ID: 186927210213698156196587161720414545100 (0x8CA0DF042763697CCE72A22D9F1424CC)
Complete name: Sesame.Street.S53E22.720p.WEBRip.AAC2.0.H.264-NTb.mkv
Format: Matroska
Format version: Version 4
File size: 480 MiB
Duration: 26 min 3 s
Overall bit rate: 2 577 kb/s
Encoded date: UTC 2023-03-30 22:44:31
Writing application: Lavf59.27.100
Writing library: Lavf59.27.100
ErrorDetectionType: Per level 1

Video
ID: 1
Format: AVC
Format/Info: Advanced Video Codec
Format profile: [email protected]
Format settings: CABAC / 4 Ref Frames
Format settings, CABAC: Yes
Format settings, Reference frames: 4 frames
Format settings, GOP: M=5, N=30
Codec ID: V_MPEG4/ISO/AVC
Duration: 26 min 3 s
Bit rate: 2 379 kb/s
Width: 1 280 pixels
Height: 720 pixels
Display aspect ratio: 16:9
Frame rate mode: Variable
Frame rate: 29.970 (29970/1000) FPS
Color space: YUV
Chroma subsampling: 4:2:0
Bit depth: 8 bits
Scan type: Progressive
Bits/(Pixel*Frame): 0.086
Stream size: 443 MiB (92%)
Default: Yes
Forced: No

Audio
ID: 2
Format: AAC LC
Format/Info: Advanced Audio Codec Low Complexity
Codec ID: A_AAC-2
Duration: 26 min 3 s
Bit rate: 192 kb/s
Channel(s): 2 channels
Channel layout: L R
Sampling rate: 44.1 kHz
Frame rate: 43.066 FPS (1024 SPF)
Compression mode: Lossy
Delay relative to video: -613 ms
Stream size: 36.0 MiB (7%)
Language: English
Default: Yes
Forced: No

Text
ID: 3
Format: UTF-8
Codec ID: S_TEXT/UTF8
Codec ID/Info: UTF-8 Plain Text
Duration: 26 min 0 s
Bit rate: 110 b/s
Frame rate: 0.420 FPS
Count of elements: 656
Stream size: 20.9 KiB (0%)
Language: English
Default: Yes
Forced: No
ssl  EZTV RSS EZTV Status | EZTV API | DMCA: [email protected]