eztv.tf | eztvstatus.org
Search title:  
TV Packs only
 

Sesame Street S53E21 720p WEBRip AAC2 0 H264-NTb EZTV

Episode Breakdown
Sesame Street
Sesame Street TV Show S53E21

Season: 53
Episode: 21
Download Links
     Torrent Download     Magnet Download
     Anonymous Download
Added 1 year ago by eztv (verified).
Tracker Statistics
Seeds: 7
Peers: 0
Stats generated @ 15:33 on 15th Jun 2024
Torrent Info
Torrent File: Sesame.Street.S53E21.720p.WEBRip.AAC2.0.H.264-NTb[eztv.re].mkv
Torrent Hash: 2CA61E179958989F15CD7F5F84890EA32B4EA762
Filesize: 487 MB
Released: 24th Mar 2023

File Format: MKV (Matroska)
Resolution: 1280x720 px
Aspect Ratio: 16:9

Episode Description


Sesame Street S53E21 720p WEBRip AAC2 0 H264-NTb EZTV
Sesame Street S53E21 Screenshot
General
Unique ID: 119806488539141884129123292532678880963 (0x5A21E3F00162AC67E1141D47FCAC6EC3)
Complete name: Sesame.Street.S53E21.720p.WEBRip.AAC2.0.H.264-NTb.mkv
Format: Matroska
Format version: Version 4
File size: 487 MiB
Duration: 26 min 6 s
Overall bit rate: 2 610 kb/s
Encoded date: UTC 2023-03-24 19:31:09
Writing application: mkvmerge v65.0.0 ('Too Much') 64-bit
Writing library: libebml v1.4.2 + libmatroska v1.6.4

Video
ID: 1
Format: AVC
Format/Info: Advanced Video Codec
Format profile: [email protected]
Format settings: CABAC / 4 Ref Frames
Format settings, CABAC: Yes
Format settings, Reference frames: 4 frames
Format settings, GOP: M=5, N=30
Codec ID: V_MPEG4/ISO/AVC
Duration: 26 min 6 s
Bit rate: 2 412 kb/s
Width: 1 280 pixels
Height: 720 pixels
Display aspect ratio: 16:9
Frame rate mode: Variable
Frame rate: 29.895 FPS
Color space: YUV
Chroma subsampling: 4:2:0
Bit depth: 8 bits
Scan type: Progressive
Bits/(Pixel*Frame): 0.088
Stream size: 451 MiB (92%)
Default: Yes
Forced: No

Audio
ID: 2
Format: AAC LC
Format/Info: Advanced Audio Codec Low Complexity
Codec ID: A_AAC-2
Duration: 26 min 6 s
Bit rate: 192 kb/s
Channel(s): 2 channels
Channel layout: L R
Sampling rate: 44.1 kHz
Frame rate: 43.066 FPS (1024 SPF)
Compression mode: Lossy
Delay relative to video: -43 ms
Stream size: 36.0 MiB (7%)
Language: English
Default: Yes
Forced: No

Text
ID: 3
Format: UTF-8
Codec ID: S_TEXT/UTF8
Codec ID/Info: UTF-8 Plain Text
Duration: 25 min 50 s
Bit rate: 111 b/s
Frame rate: 0.401 FPS
Count of elements: 622
Stream size: 21.1 KiB (0%)
Language: English
Default: Yes
Forced: No
ssl  EZTV RSS EZTV Status | EZTV API | DMCA: [email protected]