eztv.tf | eztvstatus.org
Search title:  
TV Packs only
 

The Mandalorian S03E03 Chapter 19 The 1080p DSNP WEBRip DDP5 1 x264-NTb EZTV

Episode Breakdown
The Mandalorian
The Mandalorian TV Show S03E03

Season: 3
Episode: 3
Air Date: 15 March, 2023
Download Links
     Torrent Download     Magnet Download
     Anonymous Download
Added 1 year ago by eztv (verified).
Tracker Statistics
Seeds: 21
Peers: 0
Stats generated @ 18:35 on 16th Jun 2024
Torrent Info
Torrent File: The.Mandalorian.S03E03.Chapter.19.The.Convert.1080p.DSNP.WEB-DL.DDP5.1.H.264-NTb[eztv.re].mkv
Torrent Hash: E2EDE6CE863C12C00E3E058EBC6341AA6703E78B
Filesize: 2.27 GB
Released: 15th Mar 2023

File Format: MKV (Matroska)
Resolution: 1920x1080 px
Aspect Ratio: 16:9
Alternate Releases S L
The Mandalorian S03E03 MULTI 1080p WEB H264-HiggsBoson 36 1
The Mandalorian S03E03 1080p WEB H264-GGEZ 4 1
The Mandalorian S03E03 1080p HEVC x265-MeGusta 76 9
The Mandalorian S03E03 XviD-AFG 10 1
The Mandalorian S03E03 Chapter 19 The 720p DSNP WEBRip DDP5 1 x264-NTb 11 1
The Mandalorian S03E03 720p HEVC x265-MeGusta 2 0

The Mandalorian S03E03 - Chapter 19: The Convert

Summary:

On Coruscant, former Imperials find amnesty in the New Republic.



The Mandalorian S03E03 Chapter 19 The 1080p DSNP WEBRip DDP5 1 x264-NTb EZTV
The Mandalorian S3E3 Screenshot
General
Unique ID: 88190353011623317409666216475780808193 (0x4258D81B560E531E42F57B3D00517E01)
Complete name: The.Mandalorian.S03E03.Chapter.19.The.Convert.1080p.DSNP.WEB-DL.DDP5.1.H.264-NTb.mkv
Format: Matroska
Format version: Version 4
File size: 2.27 GiB
Duration: 56 min 11 s
Overall bit rate mode: Variable
Overall bit rate: 5 782 kb/s
Writing application: mkvmerge v74.0.0 ('You Oughta Know') 64-bit
Writing library: libebml v1.4.4 + libmatroska v1.7.1

Video
ID: 1
Format: AVC
Format/Info: Advanced Video Codec
Format profile: High@L4
Format settings: CABAC / 4 Ref Frames
Format settings, CABAC: Yes
Format settings, Reference frames: 4 frames
Codec ID: V_MPEG4/ISO/AVC
Duration: 56 min 11 s
Bit rate mode: Variable
Bit rate: 5 010 kb/s
Maximum bit rate: 12.7 Mb/s
Width: 1 920 pixels
Height: 1 080 pixels
Display aspect ratio: 16:9
Frame rate mode: Constant
Frame rate: 24.000 FPS
Color space: YUV
Chroma subsampling: 4:2:0
Bit depth: 8 bits
Scan type: Progressive
Bits/(Pixel*Frame): 0.101
Stream size: 1.97 GiB (87%)
Default: Yes
Forced: No
Color range: Limited
Color primaries: BT.709
Transfer characteristics: BT.709
Matrix coefficients: BT.709

Audio
ID: 2
Format: E-AC-3 JOC
Format/Info: Enhanced AC-3 with Joint Object Coding
Commercial name: Dolby Digital Plus with Dolby Atmos
Codec ID: A_EAC3
Duration: 56 min 11 s
Bit rate mode: Constant
Bit rate: 768 kb/s
Channel(s): 6 channels
Channel layout: L R C LFE Ls Rs
Sampling rate: 48.0 kHz
Frame rate: 31.250 FPS (1536 SPF)
Compression mode: Lossy
Stream size: 309 MiB (13%)
Language: English
Service kind: Complete Main
Default: Yes
Forced: No
Complexity index: 16
Number of dynamic objects: 15
Bed channel count: 1 channel
Bed channel configuration: LFE

Text #1
ID: 3
Format: UTF-8
Codec ID: S_TEXT/UTF8
Codec ID/Info: UTF-8 Plain Text
Duration: 52 min 42 s
Bit rate: 45 b/s
Frame rate: 0.174 FPS
Count of elements: 550
Stream size: 17.6 KiB (0%)
Language: English
Default: No
Forced: No

Text #2
ID: 4
Format: UTF-8
Codec ID: S_TEXT/UTF8
Codec ID/Info: UTF-8 Plain Text
Duration: 52 min 42 s
Bit rate: 53 b/s
Frame rate: 0.210 FPS
Count of elements: 664
Stream size: 20.5 KiB (0%)
Title: SDH
Language: English
Default: No
Forced: No

Text #3
ID: 5
Format: UTF-8
Codec ID: S_TEXT/UTF8
Codec ID/Info: UTF-8 Plain Text
Duration: 55 min 58 s
Bit rate: 39 b/s
Frame rate: 0.163 FPS
Count of elements: 547
Stream size: 16.1 KiB (0%)
Language: Czech
Default: No
Forced: No

Text #4
ID: 6
Format: UTF-8
Codec ID: S_TEXT/UTF8
Codec ID/Info: UTF-8 Plain Text
Duration: 55 min 58 s
Bit rate: 41 b/s
Frame rate: 0.124 FPS
Count of elements: 415
Stream size: 17.2 KiB (0%)
Language: Danish
Default: No
Forced: No

Text #5
ID: 7
Format: UTF-8
Codec ID: S_TEXT/UTF8
Codec ID/Info: UTF-8 Plain Text
Duration: 55 min 58 s
Bit rate: 40 b/s
Frame rate: 0.159 FPS
Count of elements: 534
Stream size: 16.8 KiB (0%)
Language: German
Default: No
Forced: No

Text #6
ID: 8
Format: UTF-8
Codec ID: S_TEXT/UTF8
Codec ID/Info: UTF-8 Plain Text
Duration: 55 min 58 s
Bit rate: 73 b/s
Frame rate: 0.163 FPS
Count of elements: 546
Stream size: 30.0 KiB (0%)
Language: Greek
Default: No
Forced: No

Text #7
ID: 9
Format: UTF-8
Codec ID: S_TEXT/UTF8
Codec ID/Info: UTF-8 Plain Text
Duration: 55 min 58 s
Bit rate: 40 b/s
Frame rate: 0.163 FPS
Count of elements: 546
Stream size: 16.6 KiB (0%)
Title: Spanish (Latin America)
Language: Spanish (Latin America)
Default: No
Forced: No

Text #8
ID: 10
Format: UTF-8
Codec ID: S_TEXT/UTF8
Codec ID/Info: UTF-8 Plain Text
Duration: 55 min 58 s
Bit rate: 40 b/s
Frame rate: 0.163 FPS
Count of elements: 546
Stream size: 16.6 KiB (0%)
Title: Spanish (Spain)
Language: Spanish (ES)
Default: No
Forced: No

Text #9
ID: 11
Format: UTF-8
Codec ID: S_TEXT/UTF8
Codec ID/Info: UTF-8 Plain Text
Duration: 52 min 41 s
Bit rate: 43 b/s
Frame rate: 0.172 FPS
Count of elements: 544
Stream size: 16.7 KiB (0%)
Language: Finnish
Default: No
Forced: No

Text #10
ID: 12
Format: UTF-8
Codec ID: S_TEXT/UTF8
Codec ID/Info: UTF-8 Plain Text
Duration: 55 min 58 s
Bit rate: 36 b/s
Frame rate: 0.154 FPS
Count of elements: 516
Stream size: 14.8 KiB (0%)
Language: French (FR)
Default: No
Forced: No

Text #11
ID: 13
Format: UTF-8
Codec ID: S_TEXT/UTF8
Codec ID/Info: UTF-8 Plain Text
Duration: 55 min 58 s
Bit rate: 42 b/s
Frame rate: 0.163 FPS
Count of elements: 547
Stream size: 17.3 KiB (0%)
Language: Hungarian
Default: No
Forced: No

Text #12
ID: 14
Format: UTF-8
Codec ID: S_TEXT/UTF8
Codec ID/Info: UTF-8 Plain Text
Duration: 55 min 58 s
Bit rate: 42 b/s
Frame rate: 0.163 FPS
Count of elements: 546
Stream size: 17.5 KiB (0%)
Language: Italian
Default: No
Forced: No

Text #13
ID: 15
Format: UTF-8
Codec ID: S_TEXT/UTF8
Codec ID/Info: UTF-8 Plain Text
Duration: 55 min 57 s
Bit rate: 32 b/s
Frame rate: 0.158 FPS
Count of elements: 532
Stream size: 13.2 KiB (0%)
Language: Japanese
Default: No
Forced: No

Text #14
ID: 16
Format: UTF-8
Codec ID: S_TEXT/UTF8
Codec ID/Info: UTF-8 Plain Text
Duration: 55 min 58 s
Bit rate: 46 b/s
Frame rate: 0.163 FPS
Count of elements: 547
Stream size: 19.0 KiB (0%)
Language: Korean
Default: No
Forced: No

Text #15
ID: 17
Format: UTF-8
Codec ID: S_TEXT/UTF8
Codec ID/Info: UTF-8 Plain Text
Duration: 55 min 58 s
Bit rate: 41 b/s
Frame rate: 0.145 FPS
Count of elements: 486
Stream size: 16.9 KiB (0%)
Language: Dutch
Default: No
Forced: No

Text #16
ID: 18
Format: UTF-8
Codec ID: S_TEXT/UTF8
Codec ID/Info: UTF-8 Plain Text
Duration: 55 min 58 s
Bit rate: 37 b/s
Frame rate: 0.163 FPS
Count of elements: 546
Stream size: 15.4 KiB (0%)
Language: Norwegian
Default: No
Forced: No

Text #17
ID: 19
Format: UTF-8
Codec ID: S_TEXT/UTF8
Codec ID/Info: UTF-8 Plain Text
Duration: 52 min 41 s
Bit rate: 41 b/s
Frame rate: 0.172 FPS
Count of elements: 545
Stream size: 16.2 KiB (0%)
Language: Polish
Default: No
Forced: No

Text #18
ID: 20
Format: UTF-8
Codec ID: S_TEXT/UTF8
Codec ID/Info: UTF-8 Plain Text
Duration: 55 min 58 s
Bit rate: 44 b/s
Frame rate: 0.163 FPS
Count of elements: 546
Stream size: 18.4 KiB (0%)
Title: Portuguese (Brazil)
Language: Portuguese (BR)
Default: No
Forced: No

Text #19
ID: 21
Format: UTF-8
Codec ID: S_TEXT/UTF8
Codec ID/Info: UTF-8 Plain Text
Duration: 55 min 58 s
Bit rate: 39 b/s
Frame rate: 0.163 FPS
Count of elements: 546
Stream size: 16.1 KiB (0%)
Title: Portuguese (Portugal)
Language: Portuguese (PT)
Default: No
Forced: No

Text #20
ID: 22
Format: UTF-8
Codec ID: S_TEXT/UTF8
Codec ID/Info: UTF-8 Plain Text
Duration: 55 min 58 s
Bit rate: 43 b/s
Frame rate: 0.163 FPS
Count of elements: 546
Stream size: 17.8 KiB (0%)
Language: Romanian
Default: No
Forced: No

Text #21
ID: 23
Format: UTF-8
Codec ID: S_TEXT/UTF8
Codec ID/Info: UTF-8 Plain Text
Duration: 55 min 58 s
Bit rate: 38 b/s
Frame rate: 0.163 FPS
Count of elements: 546
Stream size: 16.0 KiB (0%)
Language: Slovak
Default: No
Forced: No

Text #22
ID: 24
Format: UTF-8
Codec ID: S_TEXT/UTF8
Codec ID/Info: UTF-8 Plain Text
Duration: 55 min 58 s
Bit rate: 38 b/s
Frame rate: 0.131 FPS
Count of elements: 439
Stream size: 15.8 KiB (0%)
Language: Swedish
Default: No
Forced: No

Text #23
ID: 25
Format: UTF-8
Codec ID: S_TEXT/UTF8
Codec ID/Info: UTF-8 Plain Text
Duration: 55 min 58 s
Bit rate: 42 b/s
Frame rate: 0.163 FPS
Count of elements: 546
Stream size: 17.6 KiB (0%)
Language: Turkish
Default: No
Forced: No

Text #24
ID: 26
Format: UTF-8
Codec ID: S_TEXT/UTF8
Codec ID/Info: UTF-8 Plain Text
Duration: 55 min 58 s
Bit rate: 33 b/s
Frame rate: 0.163 FPS
Count of elements: 547
Stream size: 13.9 KiB (0%)
Title: Chinese (Hong Kong SAR China)
Language: Chinese (HK)
Default: No
Forced: No

Text #25
ID: 27
Format: UTF-8
Codec ID: S_TEXT/UTF8
Codec ID/Info: UTF-8 Plain Text
Duration: 53 min 57 s
Bit rate: 30 b/s
Frame rate: 0.162 FPS
Count of elements: 526
Stream size: 12.0 KiB (0%)
Title: Chinese (Traditional)
Language: Chinese (Traditional)
Default: No
Forced: No

Menu
00:00:00.000: en:Recap
00:00:59.080: en:Chapter 1
00:00:59.122: en:Intro
00:01:23.414: en:Chapter 2
00:19:04.580: en:Chapter 3
00:30:15.914: en:Chapter 4
00:38:02.330: en:Chapter 5
00:53:11.455: en:Credits
ssl  EZTV RSS EZTV Status | EZTV API | DMCA: [email protected]