eztv.tf | eztvstatus.org
Search title:  
TV Packs only
 

Bobs Burgers S13E15 The Show And Tell Must Go On 1080p HULU WEBRip DDP5 1 x264-NTb EZTV

Episode Breakdown
Bob's Burgers
Bob's Burgers TV Show S13E15

Season: 13
Episode: 15
Air Date: 12 March, 2023
Download Links
     Torrent Download     Magnet Download
     Anonymous Download
Added 11 months ago by eztv (verified).
Tracker Statistics
Seeds: 2
Peers: 0
Stats generated @ 09:16 on 21st Feb 2024
Torrent Info
Torrent File: Bobs.Burgers.S13E15.The.Show.And.Tell.Must.Go.On.1080p.HULU.WEB-DL.DDP5.1.H.264-NTb[eztv.re].mkv
Torrent Hash: D52139A62D27566439CAA4D3FB62BD546FD0DF56
Filesize: 290 MB
Released: 13th Mar 2023

File Format: MKV (Matroska)
Resolution: 1920x1080 px
Aspect Ratio: 16:9
Alternate Releases S L
Bobs Burgers S13E15 1080p WEB H264-CAKES 21 1
Bobs Burgers S13E15 480p x264-mSD 2 0
Bobs Burgers S13E15 720p WEB H264-CAKES 3 0
Bobs Burgers S13E15 720p HEVC x265-MeGusta 3 0
Bobs Burgers S13E15 1080p HEVC x265-MeGusta 4 0
Bobs Burgers S13E15 XviD-AFG 2 0
Bobs Burgers S13E15 The Show 1080p DSNP WEBRip DDP5 1 x264-NTb 1 0

Bob's Burgers S13E15 - The Show (And Tell) Must Go On

Summary:

Louise brings Tina along on a mission to find the perfect item for her last-ever Show and Tell. Meanwhile, Teddy goes overboard trying to impress a date at the restaurant.



Bobs Burgers S13E15 The Show And Tell Must Go On 1080p HULU WEBRip DDP5 1 x264-NTb EZTV
Bob's Burgers S13E15 Screenshot
General
Unique ID: 245840195458901731088711953451895966902 (0xB8F31972121A62EEACC33986271F4CB6)
Complete name: Bobs.Burgers.S13E15.The.Show.And.Tell.Must.Go.On.1080p.HULU.WEB-DL.DDP5.1.H.264-NTb.mkv
Format: Matroska
Format version: Version 4
File size: 290 MiB
Duration: 21 min 33 s
Overall bit rate: 1 882 kb/s
Writing application: mkvmerge v73.0.0 ('25 or 6 to 4') 64-bit
Writing library: libebml v1.4.4 + libmatroska v1.7.1

Video
ID: 1
Format: AVC
Format/Info: Advanced Video Codec
Format profile: High@L4
Format settings: CABAC / 4 Ref Frames
Format settings, CABAC: Yes
Format settings, Reference frames: 4 frames
Codec ID: V_MPEG4/ISO/AVC
Duration: 21 min 32 s
Bit rate: 1 624 kb/s
Width: 1 920 pixels
Height: 1 080 pixels
Display aspect ratio: 16:9
Frame rate mode: Constant
Frame rate: 23.976 (24000/1001) FPS
Color space: YUV
Chroma subsampling: 4:2:0
Bit depth: 8 bits
Scan type: Progressive
Bits/(Pixel*Frame): 0.033
Stream size: 250 MiB (86%)
Default: Yes
Forced: No

Audio
ID: 2
Format: E-AC-3
Format/Info: Enhanced AC-3
Commercial name: Dolby Digital Plus
Codec ID: A_EAC3
Duration: 21 min 33 s
Bit rate mode: Constant
Bit rate: 256 kb/s
Channel(s): 6 channels
Channel layout: L R C LFE Ls Rs
Sampling rate: 48.0 kHz
Frame rate: 31.250 FPS (1536 SPF)
Compression mode: Lossy
Stream size: 39.5 MiB (14%)
Language: English
Service kind: Complete Main
Default: Yes
Forced: No

Text #1
ID: 3
Format: UTF-8
Codec ID: S_TEXT/UTF8
Codec ID/Info: UTF-8 Plain Text
Duration: 21 min 11 s
Bit rate: 149 b/s
Frame rate: 0.526 FPS
Count of elements: 668
Stream size: 23.1 KiB (0%)
Language: English
Default: No
Forced: No

Text #2
ID: 4
Format: UTF-8
Codec ID: S_TEXT/UTF8
Codec ID/Info: UTF-8 Plain Text
Duration: 21 min 28 s
Bit rate: 150 b/s
Frame rate: 0.521 FPS
Count of elements: 672
Stream size: 23.6 KiB (0%)
Title: SDH
Language: English
Default: No
Forced: No

Menu
00:00:00.000: en:Chapter 1
00:07:07.020: en:Chapter 2
00:12:07.015: en:Chapter 3
00:15:37.000: en:Chapter 4
ssl  EZTV RSS EZTV Status | EZTV API | DMCA: [email protected]