eztv.tf | eztvstatus.org
Search title:  
TV Packs only
 

The Last of Us S01E09 Look for the Light 1080p HMAX WEBRip DDP5 1 x264-NTb EZTV

Episode Breakdown
The Last of Us
The Last of Us TV Show S01E09

Season: 1
Episode: 9
Air Date: 12 March, 2023
Download Links
     Torrent Download     Magnet Download
     Anonymous Download
Added 1 year ago by eztv (verified).
Tracker Statistics
Seeds: 9
Peers: 0
Stats generated @ 02:25 on 30th May 2024
Torrent Info
Torrent File: The.Last.of.Us.S01E09.Look.for.the.Light.1080p.HMAX.WEB-DL.DDP5.1.x264-NTb[eztv.re].mkv
Torrent Hash: C67895EAC12E290B85C54521626C86754D05CE8F
Filesize: 2.74 GB
Released: 12th Mar 2023

File Format: MKV (Matroska)
Resolution: 1920x1080 px
Aspect Ratio: 16:9
Alternate Releases S L
The Last of Us S01E09 720p WEB h264-KOGi 9 0
The Last of Us S01E09 1080p WEB H264-CAKES 58 0
The Last of Us S01E09 720p HEVC x265-MeGusta 7 0
The Last of Us S01E09 480p x264-mSD 6 0
The Last of Us S01E09 1080p WEBRip DDP5 1 H 265-HODL 9 0
The Last of Us S01E09 1080p HEVC x265-MeGusta 112 3
The Last of Us S01E09 XviD-AFG 7 0

The Last of Us S01E09 - Look for the Light

Summary:

A pregnant Anna places her trust in a lifelong friend. Later, Joel and Ellie near the end of their journey.



The Last of Us S01E09 Look for the Light 1080p HMAX WEBRip DDP5 1 x264-NTb EZTV
The Last of Us S1E9 Screenshot
General
Unique ID: 147299057199825755815973853545742245796 (0x6ED0C4399D1B5481A485B44FCB749FA4)
Complete name: The.Last.of.Us.S01E09.Look.for.the.Light.1080p.HMAX.WEB-DL.DDP5.1.x264-NTb.mkv
Format: Matroska
Format version: Version 4
File size: 2.74 GiB
Duration: 43 min 34 s
Overall bit rate mode: Variable
Overall bit rate: 9 010 kb/s
Writing application: mkvmerge v74.0.0 ('You Oughta Know') 64-bit
Writing library: libebml v1.4.4 + libmatroska v1.7.1

Video
ID: 1
Format: AVC
Format/Info: Advanced Video Codec
Format profile: High@L4
Format settings: CABAC / 4 Ref Frames
Format settings, CABAC: Yes
Format settings, Reference frames: 4 frames
Codec ID: V_MPEG4/ISO/AVC
Duration: 43 min 34 s
Bit rate mode: Variable
Bit rate: 8 250 kb/s
Maximum bit rate: 12.4 Mb/s
Width: 1 920 pixels
Height: 1 080 pixels
Display aspect ratio: 16:9
Frame rate mode: Constant
Frame rate: 23.976 (24000/1001) FPS
Color space: YUV
Chroma subsampling: 4:2:0
Bit depth: 8 bits
Scan type: Progressive
Bits/(Pixel*Frame): 0.166
Stream size: 2.51 GiB (91%)
Writing library: x264 core 157 r2965 861cec4
Encoding settings: cabac=1 / ref=4 / deblock=1:0:0 / analyse=0x3:0x113 / me=hex / subme=7 / psy=1 / psy_rd=1.00:0.00 / mixed_ref=1 / me_range=16 / chroma_me=1 / trellis=1 / 8x8dct=1 / cqm=0 / deadzone=21,11 / fast_pskip=1 / chroma_qp_offset=-2 / threads=34 / lookahead_threads=5 / sliced_threads=0 / nr=0 / decimate=1 / interlaced=0 / bluray_compat=0 / constrained_intra=0 / bframes=3 / b_pyramid=2 / b_adapt=1 / b_bias=0 / direct=1 / weightb=1 / open_gop=0 / weightp=2 / keyint=96 / keyint_min=96 / scenecut=40 / intra_refresh=0 / rc_lookahead=40 / rc=2pass / mbtree=1 / bitrate=8250 / ratetol=1.0 / qcomp=0.60 / qpmin=0 / qpmax=69 / qpstep=4 / cplxblur=20.0 / qblur=0.5 / vbv_maxrate=12375 / vbv_bufsize=6187 / nal_hrd=vbr / filler=0 / ip_ratio=1.40 / aq=1:1.00
Default: Yes
Forced: No
Color range: Limited
Color primaries: BT.709
Transfer characteristics: BT.709
Matrix coefficients: BT.709

Audio
ID: 2
Format: E-AC-3 JOC
Format/Info: Enhanced AC-3 with Joint Object Coding
Commercial name: Dolby Digital Plus with Dolby Atmos
Codec ID: A_EAC3
Duration: 43 min 34 s
Bit rate mode: Constant
Bit rate: 768 kb/s
Channel(s): 6 channels
Channel layout: L R C LFE Ls Rs
Sampling rate: 48.0 kHz
Frame rate: 31.250 FPS (1536 SPF)
Compression mode: Lossy
Stream size: 239 MiB (9%)
Language: English (US)
Service kind: Complete Main
Default: Yes
Forced: No
Complexity index: 16
Number of dynamic objects: 15
Bed channel count: 1 channel
Bed channel configuration: LFE

Text #1
ID: 3
Format: UTF-8
Codec ID: S_TEXT/UTF8
Codec ID/Info: UTF-8 Plain Text
Duration: 41 min 56 s
Bit rate: 30 b/s
Frame rate: 0.144 FPS
Count of elements: 362
Stream size: 9.26 KiB (0%)
Language: English (US)
Default: No
Forced: No

Text #2
ID: 4
Format: UTF-8
Codec ID: S_TEXT/UTF8
Codec ID/Info: UTF-8 Plain Text
Duration: 42 min 23 s
Bit rate: 37 b/s
Frame rate: 0.189 FPS
Count of elements: 480
Stream size: 11.6 KiB (0%)
Title: SDH
Language: English (US)
Default: No
Forced: No

Text #3
ID: 5
Format: UTF-8
Codec ID: S_TEXT/UTF8
Codec ID/Info: UTF-8 Plain Text
Duration: 42 min 52 s
Bit rate: 42 b/s
Frame rate: 0.147 FPS
Count of elements: 379
Stream size: 13.4 KiB (0%)
Language: Bulgarian (BG)
Default: No
Forced: No

Text #4
ID: 6
Format: UTF-8
Codec ID: S_TEXT/UTF8
Codec ID/Info: UTF-8 Plain Text
Duration: 42 min 52 s
Bit rate: 26 b/s
Frame rate: 0.147 FPS
Count of elements: 379
Stream size: 8.44 KiB (0%)
Language: Czech (CZ)
Default: No
Forced: No

Text #5
ID: 7
Format: UTF-8
Codec ID: S_TEXT/UTF8
Codec ID/Info: UTF-8 Plain Text
Duration: 42 min 52 s
Bit rate: 26 b/s
Frame rate: 0.147 FPS
Count of elements: 379
Stream size: 8.44 KiB (0%)
Language: Danish (DK)
Default: No
Forced: No

Text #6
ID: 8
Format: UTF-8
Codec ID: S_TEXT/UTF8
Codec ID/Info: UTF-8 Plain Text
Duration: 42 min 52 s
Bit rate: 45 b/s
Frame rate: 0.147 FPS
Count of elements: 379
Stream size: 14.4 KiB (0%)
Language: Greek (GR)
Default: No
Forced: No

Text #7
ID: 9
Format: UTF-8
Codec ID: S_TEXT/UTF8
Codec ID/Info: UTF-8 Plain Text
Duration: 42 min 52 s
Bit rate: 26 b/s
Frame rate: 0.147 FPS
Count of elements: 379
Stream size: 8.34 KiB (0%)
Title: Spanish (Latin America)
Language: Spanish (Latin America)
Default: No
Forced: No

Text #8
ID: 10
Format: UTF-8
Codec ID: S_TEXT/UTF8
Codec ID/Info: UTF-8 Plain Text
Duration: 41 min 56 s
Bit rate: 29 b/s
Frame rate: 0.132 FPS
Count of elements: 331
Stream size: 9.21 KiB (0%)
Title: Spanish (Spain)
Language: Spanish (ES)
Default: No
Forced: No

Text #9
ID: 11
Format: UTF-8
Codec ID: S_TEXT/UTF8
Codec ID/Info: UTF-8 Plain Text
Duration: 42 min 52 s
Bit rate: 29 b/s
Frame rate: 0.147 FPS
Count of elements: 379
Stream size: 9.34 KiB (0%)
Language: Estonian (EE)
Default: No
Forced: No

Text #10
ID: 12
Format: UTF-8
Codec ID: S_TEXT/UTF8
Codec ID/Info: UTF-8 Plain Text
Duration: 42 min 52 s
Bit rate: 27 b/s
Frame rate: 0.146 FPS
Count of elements: 376
Stream size: 8.58 KiB (0%)
Language: Finnish (FI)
Default: No
Forced: No

Text #11
ID: 13
Format: UTF-8
Codec ID: S_TEXT/UTF8
Codec ID/Info: UTF-8 Plain Text
Duration: 42 min 52 s
Bit rate: 25 b/s
Frame rate: 0.147 FPS
Count of elements: 379
Stream size: 8.08 KiB (0%)
Language: Croatian (HR)
Default: No
Forced: No

Text #12
ID: 14
Format: UTF-8
Codec ID: S_TEXT/UTF8
Codec ID/Info: UTF-8 Plain Text
Duration: 42 min 52 s
Bit rate: 25 b/s
Frame rate: 0.147 FPS
Count of elements: 379
Stream size: 8.12 KiB (0%)
Language: Hungarian (HU)
Default: No
Forced: No

Text #13
ID: 15
Format: UTF-8
Codec ID: S_TEXT/UTF8
Codec ID/Info: UTF-8 Plain Text
Duration: 42 min 52 s
Bit rate: 32 b/s
Frame rate: 0.147 FPS
Count of elements: 378
Stream size: 10.3 KiB (0%)
Language: Icelandic (IS)
Default: No
Forced: No

Text #14
ID: 16
Format: UTF-8
Codec ID: S_TEXT/UTF8
Codec ID/Info: UTF-8 Plain Text
Duration: 42 min 52 s
Bit rate: 28 b/s
Frame rate: 0.147 FPS
Count of elements: 379
Stream size: 9.08 KiB (0%)
Language: Lithuanian (LT)
Default: No
Forced: No

Text #15
ID: 17
Format: UTF-8
Codec ID: S_TEXT/UTF8
Codec ID/Info: UTF-8 Plain Text
Duration: 42 min 52 s
Bit rate: 27 b/s
Frame rate: 0.147 FPS
Count of elements: 379
Stream size: 8.72 KiB (0%)
Language: Latvian (LV)
Default: No
Forced: No

Text #16
ID: 18
Format: UTF-8
Codec ID: S_TEXT/UTF8
Codec ID/Info: UTF-8 Plain Text
Duration: 42 min 52 s
Bit rate: 48 b/s
Frame rate: 0.147 FPS
Count of elements: 379
Stream size: 15.2 KiB (0%)
Language: Macedonian (MK)
Default: No
Forced: No

Text #17
ID: 19
Format: UTF-8
Codec ID: S_TEXT/UTF8
Codec ID/Info: UTF-8 Plain Text
Duration: 42 min 52 s
Bit rate: 24 b/s
Frame rate: 0.140 FPS
Count of elements: 361
Stream size: 7.75 KiB (0%)
Language: Dutch (NL)
Default: No
Forced: No

Text #18
ID: 20
Format: UTF-8
Codec ID: S_TEXT/UTF8
Codec ID/Info: UTF-8 Plain Text
Duration: 42 min 52 s
Bit rate: 26 b/s
Frame rate: 0.147 FPS
Count of elements: 379
Stream size: 8.46 KiB (0%)
Language: Norwegian (NO)
Default: No
Forced: No

Text #19
ID: 21
Format: UTF-8
Codec ID: S_TEXT/UTF8
Codec ID/Info: UTF-8 Plain Text
Duration: 42 min 52 s
Bit rate: 24 b/s
Frame rate: 0.147 FPS
Count of elements: 379
Stream size: 7.76 KiB (0%)
Language: Polish (PL)
Default: No
Forced: No

Text #20
ID: 22
Format: UTF-8
Codec ID: S_TEXT/UTF8
Codec ID/Info: UTF-8 Plain Text
Duration: 42 min 52 s
Bit rate: 24 b/s
Frame rate: 0.147 FPS
Count of elements: 379
Stream size: 7.58 KiB (0%)
Title: Portuguese (Brazil)
Language: Portuguese (BR)
Default: No
Forced: No

Text #21
ID: 23
Format: UTF-8
Codec ID: S_TEXT/UTF8
Codec ID/Info: UTF-8 Plain Text
Duration: 42 min 52 s
Bit rate: 28 b/s
Frame rate: 0.147 FPS
Count of elements: 379
Stream size: 8.95 KiB (0%)
Title: Portuguese (Portugal)
Language: Portuguese (PT)
Default: No
Forced: No

Text #22
ID: 24
Format: UTF-8
Codec ID: S_TEXT/UTF8
Codec ID/Info: UTF-8 Plain Text
Duration: 42 min 52 s
Bit rate: 28 b/s
Frame rate: 0.147 FPS
Count of elements: 378
Stream size: 8.98 KiB (0%)
Language: Romanian (RO)
Default: No
Forced: No

Text #23
ID: 25
Format: UTF-8
Codec ID: S_TEXT/UTF8
Codec ID/Info: UTF-8 Plain Text
Duration: 42 min 52 s
Bit rate: 44 b/s
Frame rate: 0.147 FPS
Count of elements: 379
Stream size: 13.9 KiB (0%)
Language: Russian (RU)
Default: No
Forced: No

Text #24
ID: 26
Format: UTF-8
Codec ID: S_TEXT/UTF8
Codec ID/Info: UTF-8 Plain Text
Duration: 42 min 52 s
Bit rate: 27 b/s
Frame rate: 0.147 FPS
Count of elements: 379
Stream size: 8.52 KiB (0%)
Language: Slovak (SK)
Default: No
Forced: No

Text #25
ID: 27
Format: UTF-8
Codec ID: S_TEXT/UTF8
Codec ID/Info: UTF-8 Plain Text
Duration: 42 min 52 s
Bit rate: 26 b/s
Frame rate: 0.147 FPS
Count of elements: 379
Stream size: 8.39 KiB (0%)
Language: Slovenian (SI)
Default: No
Forced: No

Text #26
ID: 28
Format: UTF-8
Codec ID: S_TEXT/UTF8
Codec ID/Info: UTF-8 Plain Text
Duration: 42 min 52 s
Bit rate: 26 b/s
Frame rate: 0.147 FPS
Count of elements: 379
Stream size: 8.39 KiB (0%)
Language: Serbian-Latn-RS
Default: No
Forced: No

Text #27
ID: 29
Format: UTF-8
Codec ID: S_TEXT/UTF8
Codec ID/Info: UTF-8 Plain Text
Duration: 42 min 52 s
Bit rate: 24 b/s
Frame rate: 0.147 FPS
Count of elements: 378
Stream size: 7.78 KiB (0%)
Language: Swedish (SE)
Default: No
Forced: No

Text #28
ID: 30
Format: UTF-8
Codec ID: S_TEXT/UTF8
Codec ID/Info: UTF-8 Plain Text
Duration: 42 min 52 s
Bit rate: 28 b/s
Frame rate: 0.147 FPS
Count of elements: 379
Stream size: 8.91 KiB (0%)
Language: Turkish (TR)
Default: No
Forced: No

Menu
00:00:00.000: en:Chapter 1
00:04:27.893: en:Intro
00:05:32.750: en:Chapter 2
00:42:35.000: en:Credits
ssl  EZTV RSS EZTV Status | EZTV API | DMCA: [email protected]