eztv.tf | eztvstatus.org
Search title:  
TV Packs only
 

DAM S02E04 WEBRip x264-LAMA EZTV

Episode Breakdown
Dam
Dam TV Show S02E04

Season: 2
Episode: 4
Air Date: 9 March, 2023
Download Links
     Torrent Download     Magnet Download
     Anonymous Download
Added 1 year ago by eztv (verified).
Tracker Statistics
Seeds: 0
Peers: 3
Stats generated @ 06:09 on 25th May 2024
Torrent Info
Torrent File: DAM.S02E04.WEBRip.x264-LAMA[eztv.re].mp4
Torrent Hash: D2D98A3F650052FBF5B9D64F3BCA6CC843A0AB4B
Filesize: 376 MB
Released: 9th Mar 2023

File Format: MP4 (MPEG-4)
Resolution: 720x404 px
Aspect Ratio: 16:9

Dam S02E04 - Crocodile Tears

Summary:
DAM S02E04 WEBRip x264-LAMA EZTV
Dam S2E4 Screenshot
General
Complete name: DAM.S02E04.WEBRip.x264-LAMA.mp4
Format: MPEG-4
Format profile: Base Media
Codec ID: isom (isom/iso2/avc1/mp41)
File size: 376 MiB
Duration: 39 min 23 s
Overall bit rate: 1 335 kb/s
Encoded date: UTC 2023-03-09 19:58:31
Tagged date: UTC 2023-03-09 19:58:31

Video
ID: 1
Format: AVC
Format/Info: Advanced Video Codec
Format profile: [email protected]
Format settings: CABAC / 5 Ref Frames
Format settings, CABAC: Yes
Format settings, Reference frames: 5 frames
Codec ID: avc1
Codec ID/Info: Advanced Video Coding
Duration: 39 min 23 s
Bit rate: 1 100 kb/s
Width: 720 pixels
Height: 360 pixels
Display aspect ratio: 2.000
Frame rate mode: Constant
Frame rate: 25.000 FPS
Color space: YUV
Chroma subsampling: 4:2:0
Bit depth: 8 bits
Scan type: Progressive
Bits/(Pixel*Frame): 0.170
Stream size: 302 MiB (80%)
Title: DAM.S02E04.WEBRip.x264-LAMA
Writing library: x264 core 148 r2795M aaa9aa8
Encoding settings: cabac=1 / ref=5 / deblock=1:-1:-1 / analyse=0x3:0x113 / me=umh / subme=9 / psy=1 / psy_rd=1.00:0.15 / mixed_ref=1 / me_range=16 / chroma_me=1 / trellis=2 / 8x8dct=1 / cqm=0 / deadzone=21,11 / fast_pskip=1 / chroma_qp_offset=-3 / threads=24 / lookahead_threads=2 / sliced_threads=0 / nr=0 / decimate=1 / interlaced=0 / bluray_compat=0 / constrained_intra=0 / bframes=3 / b_pyramid=2 / b_adapt=2 / b_bias=0 / direct=3 / weightb=1 / open_gop=0 / weightp=2 / keyint=250 / keyint_min=25 / scenecut=40 / intra_refresh=0 / rc_lookahead=50 / rc=abr / mbtree=1 / bitrate=1100 / ratetol=1.0 / qcomp=0.60 / qpmin=0 / qpmax=69 / qpstep=4 / ip_ratio=1.40 / aq=1:1.00
Language: English
Encoded date: UTC 2023-03-09 19:58:31
Tagged date: UTC 2023-03-09 19:58:31
Codec configuration box: avcC

Audio
ID: 2
Format: AAC LC
Format/Info: Advanced Audio Codec Low Complexity
Codec ID: mp4a-40-2
Duration: 39 min 23 s
Bit rate mode: Constant
Bit rate: 256 kb/s
Channel(s): 2 channels
Channel layout: L R
Sampling rate: 48.0 kHz
Frame rate: 46.875 FPS (1024 SPF)
Compression mode: Lossy
Stream size: 72.1 MiB (19%)
Title: DAM.S02E04.WEBRip.x264-LAMA
Language: English
Default: Yes
Alternate group: 1
Encoded date: UTC 2023-03-09 19:58:31
Tagged date: UTC 2023-03-09 19:58:31
ssl  EZTV RSS EZTV Status | EZTV API | DMCA: [email protected]