eztv.tf | eztvstatus.org
Search title:  
TV Packs only
 

Sesame Street S53E16 1080p WEBRip AAC2 0 H265-NTb EZTV

Episode Breakdown
Sesame Street
Sesame Street TV Show S53E16

Season: 53
Episode: 16
Download Links
     Torrent Download     Magnet Download
     Anonymous Download
Added 1 year ago by eztv (verified).
Tracker Statistics
Seeds: 3
Peers: 1
Stats generated @ 16:04 on 23rd Jun 2024
Torrent Info
Torrent File: Sesame.Street.S53E16.1080p.WEBRip.AAC2.0.H.265-NTb[eztv.re].mkv
Torrent Hash: 69ED2D3F440F1254708985FEA256A8D40FFA19DA
Filesize: 634 MB
Released: 16th Feb 2023

File Format: MKV (Matroska)
Resolution: 1920x1080 px
Aspect Ratio: 16:9

Episode Description
Sesame Street S53E16 1080p WEBRip AAC2 0 H265-NTb EZTV
Sesame Street S53E16 Screenshot
General
Unique ID: 235084111801390504060896167667866721421 (0xB0DB8D93D1CEA3AC5D263F8762D2DC8D)
Complete name: Sesame.Street.S53E16.1080p.WEBRip.AAC2.0.H.265-NTb.mkv
Format: Matroska
Format version: Version 4
File size: 634 MiB
Duration: 26 min 9 s
Overall bit rate: 3 387 kb/s
Encoded date: UTC 2023-02-16 16:32:46
Writing application: mkvmerge v65.0.0 ('Too Much') 64-bit
Writing library: libebml v1.4.2 + libmatroska v1.6.4

Video
ID: 1
Format: HEVC
Format/Info: High Efficiency Video Coding
Format profile: [email protected]@Main
Codec ID: V_MPEGH/ISO/HEVC
Duration: 26 min 9 s
Bit rate: 3 189 kb/s
Width: 1 920 pixels
Height: 1 080 pixels
Display aspect ratio: 16:9
Frame rate mode: Variable
Frame rate: 29.816 FPS
Original frame rate: 29.970 (30000/1001) FPS
Standard: Component
Color space: YUV
Chroma subsampling: 4:2:0
Bit depth: 8 bits
Bits/(Pixel*Frame): 0.052
Stream size: 597 MiB (94%)
Default: Yes
Forced: No
Color range: Limited

Audio
ID: 2
Format: AAC LC
Format/Info: Advanced Audio Codec Low Complexity
Codec ID: A_AAC-2
Duration: 26 min 9 s
Bit rate: 192 kb/s
Channel(s): 2 channels
Channel layout: L R
Sampling rate: 44.1 kHz
Frame rate: 43.066 FPS (1024 SPF)
Compression mode: Lossy
Delay relative to video: -11 ms
Stream size: 36.2 MiB (6%)
Language: English
Default: Yes
Forced: No

Text
ID: 3
Format: UTF-8
Codec ID: S_TEXT/UTF8
Codec ID/Info: UTF-8 Plain Text
Duration: 25 min 56 s
Bit rate: 116 b/s
Frame rate: 0.414 FPS
Count of elements: 644
Stream size: 22.0 KiB (0%)
Language: English
Default: Yes
Forced: No
ssl  EZTV RSS EZTV Status | EZTV API | DMCA: [email protected]