eztv.tf | Wednesday 31st of May 2023 06:38 AM ET
Search title:  
 

Sesame Street S53E14 1080p WEBRip AAC2 0 H265-NTb EZTV

Episode Breakdown
Sesame Street
Sesame Street TV Show S53E14

Season: 53
Episode: 14
Download Links
     Torrent Download     Magnet Download
     Anonymous Download
Added 3 months ago by eztv (verified).
Tracker Statistics
Seeds: 5
Peers: 0
Stats generated @ 06:38 on 31st May 2023
Torrent Info
Torrent File: Sesame.Street.S53E14.1080p.WEBRip.AAC2.0.H.265-NTb[eztv.re].mkv
Torrent Hash: 2F83B079DE55B21F3FE196DBA134CA059D8B6DD7
Filesize: 634.39 MB
Released: 13th Feb 2023

File Format: MKV (Matroska)
Resolution: 1920x1080 px
Aspect Ratio: 16:9

Episode Description
Sesame Street S53E14 1080p WEBRip AAC2 0 H265-NTb EZTV
Sesame Street S53E14 Screenshot
General
Unique ID: 171700681292121572403124479905104959157 (0x812C592DF04D4D34D8F055B4566096B5)
Complete name: Sesame.Street.S53E14.1080p.WEBRip.AAC2.0.H.265-NTb.mkv
Format: Matroska
Format version: Version 4
File size: 634 MiB
Duration: 26 min 2 s
Overall bit rate: 3 405 kb/s
Encoded date: UTC 2023-02-13 17:31:16
Writing application: mkvmerge v65.0.0 ('Too Much') 64-bit
Writing library: libebml v1.4.2 + libmatroska v1.6.4

Video
ID: 1
Format: HEVC
Format/Info: High Efficiency Video Coding
Format profile: [email protected]@Main
Codec ID: V_MPEGH/ISO/HEVC
Duration: 26 min 2 s
Bit rate: 3 207 kb/s
Width: 1 920 pixels
Height: 1 080 pixels
Display aspect ratio: 16:9
Frame rate mode: Variable
Frame rate: 29.970 (29970/1000) FPS
Original frame rate: 29.970 (30000/1001) FPS
Standard: Component
Color space: YUV
Chroma subsampling: 4:2:0
Bit depth: 8 bits
Bits/(Pixel*Frame): 0.052
Stream size: 598 MiB (94%)
Default: Yes
Forced: No
Color range: Limited

Audio
ID: 2
Format: AAC LC
Format/Info: Advanced Audio Codec Low Complexity
Codec ID: A_AAC-2
Duration: 26 min 2 s
Bit rate: 192 kb/s
Channel(s): 2 channels
Channel layout: L R
Sampling rate: 44.1 kHz
Frame rate: 43.066 FPS (1024 SPF)
Compression mode: Lossy
Delay relative to video: -13 ms
Stream size: 36.0 MiB (6%)
Default: Yes
Forced: No

Text
ID: 3
Format: UTF-8
Codec ID: S_TEXT/UTF8
Codec ID/Info: UTF-8 Plain Text
Duration: 25 min 49 s
Bit rate: 120 b/s
Frame rate: 0.456 FPS
Count of elements: 707
Stream size: 22.9 KiB (0%)
Language: English
Default: Yes
Forced: No
ssl  EZTV RSS EZTV Status | EZTV API | DMCA: [email protected]